<?xml version="1.0" standalone="no"?>
  <!DOCTYPE svg PUBLIC "-//W3C//DTD SVG 1.1//EN" "http://www.w3.org/Graphics/SVG/1.1/DTD/svg11.dtd" >
  <svg>
  <metadata>
  Created by font-carrier
  </metadata>
  <defs>
  <font id="InterV" horiz-adv-x="7552" vert-adv-y="7552" >
    <font-face
      
      font-family="Inter V"
      
      font-weight="400"
      
      font-stretch="normal"
      
      units-per-em="2816"
      
      ascent="2728"
      
      descent="-680"
      
    />
      <missing-glyph />

      

      
      <glyph glyph-name="uni41" unicode="&#x41;" d="M332 0L72 0L824 2048L1080 2048L1832 0L1572 0L960 1724L944 1724L332 0M428 800L1476 800L1476 580L428 580L428 800Z"  horiz-adv-x="1904" vert-adv-y="2816"  />

      
      <glyph glyph-name="unic4" unicode="&#xc4;" d="M332 0L72 0L824 2048L1080 2048L1832 0L1572 0L960 1724L944 1724L332 0M428 800L1476 800L1476 580L428 580L428 800M664 2304Q601 2304 552.50 2352.50Q504 2401 504 2464Q504 2533 552.50 2578.50Q601 2624 664 2624Q733 2624 778.50 2578.50Q824 2533 824 2464Q824 2401 778.50 2352.50Q733 2304 664 2304M1240 2304Q1177 2304 1128.50 2352.50Q1080 2401 1080 2464Q1080 2533 1128.50 2578.50Q1177 2624 1240 2624Q1309 2624 1354.50 2578.50Q1400 2533 1400 2464Q1400 2401 1354.50 2352.50Q1309 2304 1240 2304Z"  horiz-adv-x="1904" vert-adv-y="2816"  />

      
      <glyph glyph-name="unic3" unicode="&#xc3;" d="M332 0L72 0L824 2048L1080 2048L1832 0L1572 0L960 1724L944 1724L332 0M428 800L1476 800L1476 580L428 580L428 800M644 2252L460 2260Q460 2413 547.50 2510.50Q635 2608 764 2608Q821 2608 865 2588.50Q909 2569 949 2544Q989 2519 1031.50 2499.50Q1074 2480 1128 2480Q1185 2480 1224.50 2524.50Q1264 2569 1264 2632L1444 2616Q1444 2460 1356.50 2368Q1269 2276 1140 2276Q1071 2276 1026 2295.50Q981 2315 946 2340Q911 2365 872 2384.50Q833 2404 776 2404Q719 2404 681.50 2359.50Q644 2315 644 2252Z"  horiz-adv-x="1904" vert-adv-y="2816"  />

      
      <glyph glyph-name="unic0" unicode="&#xc0;" d="M332 0L72 0L824 2048L1080 2048L1832 0L1572 0L960 1724L944 1724L332 0M428 800L1476 800L1476 580L428 580L428 800M852 2256L540 2720L816 2720L1060 2256L852 2256Z"  horiz-adv-x="1904" vert-adv-y="2816"  />

      
      <glyph glyph-name="unic1" unicode="&#xc1;" d="M332 0L72 0L824 2048L1080 2048L1832 0L1572 0L960 1724L944 1724L332 0M428 800L1476 800L1476 580L428 580L428 800M844 2256L1088 2720L1364 2720L1052 2256L844 2256Z"  horiz-adv-x="1904" vert-adv-y="2816"  />

      
      <glyph glyph-name="unic2" unicode="&#xc2;" d="M332 0L72 0L824 2048L1080 2048L1832 0L1572 0L960 1724L944 1724L332 0M428 800L1476 800L1476 580L428 580L428 800M1160 2232L952 2512L744 2232L520 2232L520 2248L844 2664L1060 2664L1384 2248L1384 2232L1160 2232Z"  horiz-adv-x="1904" vert-adv-y="2816"  />

      
      <glyph glyph-name="unic5" unicode="&#xc5;" d="M332 0L72 0L824 2048L1080 2048L1832 0L1572 0L960 1724L944 1724L332 0M428 800L1476 800L1476 580L428 580L428 800M952 2188Q832 2188 747 2273Q662 2358 662 2478Q662 2558 701 2624Q740 2690 806 2729Q872 2768 952 2768Q1032 2768 1098 2729Q1164 2690 1203 2624Q1242 2558 1242 2478Q1242 2398 1203 2332Q1164 2266 1098 2227Q1032 2188 952 2188M952 2332Q1014 2332 1055 2374.50Q1096 2417 1096 2478Q1096 2539 1055 2581.50Q1014 2624 952 2624Q890 2624 849 2581.50Q808 2539 808 2478Q808 2417 849 2374.50Q890 2332 952 2332Z"  horiz-adv-x="1904" vert-adv-y="2816"  />

      
      <glyph glyph-name="uni01FA" unicode="&#x01FA;" d="M332 0L72 0L824 2048L1080 2048L1832 0L1572 0L960 1724L944 1724L332 0M428 800L1476 800L1476 580L428 580L428 800M852 2820L1052 3068L1304 3068L1046 2820L852 2820M952 2189Q832 2189 747 2269.50Q662 2350 662 2464Q662 2540 701 2602.50Q740 2665 806 2702.50Q872 2740 952 2740Q1072 2740 1157 2659Q1242 2578 1242 2464Q1242 2388 1203 2325.50Q1164 2263 1098 2226Q1032 2189 952 2189M952 2325Q1014 2325 1055 2365.50Q1096 2406 1096 2464Q1096 2522 1055 2562.50Q1014 2603 952 2603Q890 2603 849 2562.50Q808 2522 808 2464Q808 2406 849 2365.50Q890 2325 952 2325Z"  horiz-adv-x="1904" vert-adv-y="2816"  />

      
      <glyph glyph-name="uniEE02" unicode="&#xEE02;" d="M332 0L72 0L824 2048L1080 2048L1832 0L1572 0L960 1724L944 1724L332 0M428 800L1476 800L1476 580L428 580L428 800M952 2188Q832 2188 747 2273Q662 2358 662 2478Q662 2558 701 2624Q740 2690 806 2729Q872 2768 952 2768Q1032 2768 1098 2729Q1164 2690 1203 2624Q1242 2558 1242 2478Q1242 2398 1203 2332Q1164 2266 1098 2227Q1032 2188 952 2188M952 2332Q1014 2332 1055 2374.50Q1096 2417 1096 2478Q1096 2539 1055 2581.50Q1014 2624 952 2624Q890 2624 849 2581.50Q808 2539 808 2478Q808 2417 849 2374.50Q890 2332 952 2332M1644-600Q1521-600 1440.50-532.50Q1360-465 1360-336Q1360-262 1396-188Q1432-114 1512-45Q1592 24 1724 84L1832 0Q1742-66 1671-140Q1600-214 1600-304Q1600-349 1622-374.50Q1644-400 1704-400Q1749-400 1784-388Q1819-376 1840-364L1856-540Q1823-561 1769.50-580.50Q1716-600 1644-600Z"  horiz-adv-x="1904" vert-adv-y="2816"  />

      
      <glyph glyph-name="uni0100" unicode="&#x0100;" d="M332 0L72 0L824 2048L1080 2048L1832 0L1572 0L960 1724L944 1724L332 0M428 800L1476 800L1476 580L428 580L428 800M1420 2560L1420 2360L484 2360L484 2560L1420 2560Z"  horiz-adv-x="1904" vert-adv-y="2816"  />

      
      <glyph glyph-name="uni0102" unicode="&#x0102;" d="M332 0L72 0L824 2048L1080 2048L1832 0L1572 0L960 1724L944 1724L332 0M428 800L1476 800L1476 580L428 580L428 800M1148 2560L1368 2560Q1368 2398 1256 2295Q1144 2192 952 2192Q763 2192 651.50 2295Q540 2398 540 2560L760 2560Q760 2482 803.50 2423Q847 2364 952 2364Q1057 2364 1102.50 2423Q1148 2482 1148 2560Z"  horiz-adv-x="1904" vert-adv-y="2816"  />

      
      <glyph glyph-name="uni0104" unicode="&#x0104;" d="M332 0L72 0L824 2048L1080 2048L1832 0L1572 0L960 1724L944 1724L332 0M428 800L1476 800L1476 580L428 580L428 800M1644-600Q1521-600 1440.50-532.50Q1360-465 1360-336Q1360-262 1396-188Q1432-114 1512-45Q1592 24 1724 84L1832 0Q1742-66 1671-140Q1600-214 1600-304Q1600-349 1622-374.50Q1644-400 1704-400Q1749-400 1784-388Q1819-376 1840-364L1856-540Q1823-561 1769.50-580.50Q1716-600 1644-600Z"  horiz-adv-x="1904" vert-adv-y="2816"  />

      
      <glyph glyph-name="uni01CD" unicode="&#x01CD;" d="M332 0L72 0L824 2048L1080 2048L1832 0L1572 0L960 1724L944 1724L332 0M428 800L1476 800L1476 580L428 580L428 800M744 2664L952 2384L1160 2664L1384 2664L1384 2648L1060 2232L844 2232L520 2648L520 2664L744 2664Z"  horiz-adv-x="1904" vert-adv-y="2816"  />

      
      <glyph glyph-name="uni01DE" unicode="&#x01DE;" d="M332 0L72 0L824 2048L1080 2048L1832 0L1572 0L960 1724L944 1724L332 0M428 800L1476 800L1476 580L428 580L428 800M664 2304Q601 2304 552.50 2352.50Q504 2401 504 2464Q504 2533 552.50 2578.50Q601 2624 664 2624Q733 2624 778.50 2578.50Q824 2533 824 2464Q824 2401 778.50 2352.50Q733 2304 664 2304M1240 2304Q1177 2304 1128.50 2352.50Q1080 2401 1080 2464Q1080 2533 1128.50 2578.50Q1177 2624 1240 2624Q1309 2624 1354.50 2578.50Q1400 2533 1400 2464Q1400 2401 1354.50 2352.50Q1309 2304 1240 2304M1420 3072L1420 2872L484 2872L484 3072L1420 3072Z"  horiz-adv-x="1904" vert-adv-y="2816"  />

      
      <glyph glyph-name="uni01E0" unicode="&#x01E0;" d="M332 0L72 0L824 2048L1080 2048L1832 0L1572 0L960 1724L944 1724L332 0M428 800L1476 800L1476 580L428 580L428 800M952 2304Q883 2304 833.50 2351Q784 2398 784 2464Q784 2530 833.50 2577Q883 2624 952 2624Q1021 2624 1070.50 2577Q1120 2530 1120 2464Q1120 2398 1070.50 2351Q1021 2304 952 2304M1420 3072L1420 2872L484 2872L484 3072L1420 3072Z"  horiz-adv-x="1904" vert-adv-y="2816"  />

      
      <glyph glyph-name="uni0200" unicode="&#x0200;" d="M332 0L72 0L824 2048L1080 2048L1832 0L1572 0L960 1724L944 1724L332 0M428 800L1476 800L1476 580L428 580L428 800M642 2256L312 2720L606 2720L850 2256L642 2256M1066 2256L822 2720L1122 2720L1272 2256L1066 2256Z"  horiz-adv-x="1904" vert-adv-y="2816"  />

      
      <glyph glyph-name="uni0202" unicode="&#x0202;" d="M332 0L72 0L824 2048L1080 2048L1832 0L1572 0L960 1724L944 1724L332 0M428 800L1476 800L1476 580L428 580L428 800M536 2304Q536 2466 648 2571Q760 2676 952 2676Q1144 2676 1254 2571Q1364 2466 1364 2304L1144 2304Q1144 2385 1099 2444.50Q1054 2504 952 2504Q844 2504 800 2443Q756 2382 756 2304L536 2304Z"  horiz-adv-x="1904" vert-adv-y="2816"  />

      
      <glyph glyph-name="uni0226" unicode="&#x0226;" d="M332 0L72 0L824 2048L1080 2048L1832 0L1572 0L960 1724L944 1724L332 0M428 800L1476 800L1476 580L428 580L428 800M952 2304Q883 2304 833.50 2351Q784 2398 784 2464Q784 2530 833.50 2577Q883 2624 952 2624Q1021 2624 1070.50 2577Q1120 2530 1120 2464Q1120 2398 1070.50 2351Q1021 2304 952 2304Z"  horiz-adv-x="1904" vert-adv-y="2816"  />

      
      <glyph glyph-name="uni1E00" unicode="&#x1E00;" d="M332 0L72 0L824 2048L1080 2048L1832 0L1572 0L960 1724L944 1724L332 0M428 800L1476 800L1476 580L428 580L428 800M708-336Q708-234 779-169Q850-104 952-104Q1048-104 1122-169Q1196-234 1196-336Q1196-441 1122-504.50Q1048-568 952-568Q850-568 779-504.50Q708-441 708-336M832-336Q832-387 866.50-421.50Q901-456 952-456Q997-456 1034.50-421.50Q1072-387 1072-336Q1072-285 1034.50-250.50Q997-216 952-216Q901-216 866.50-250.50Q832-285 832-336Z"  horiz-adv-x="1904" vert-adv-y="2816"  />

      
      <glyph glyph-name="uni1EA0" unicode="&#x1EA0;" d="M332 0L72 0L824 2048L1080 2048L1832 0L1572 0L960 1724L944 1724L332 0M428 800L1476 800L1476 580L428 580L428 800M952-508Q883-508 833.50-461Q784-414 784-348Q784-282 833.50-235Q883-188 952-188Q1021-188 1070.50-235Q1120-282 1120-348Q1120-414 1070.50-461Q1021-508 952-508Z"  horiz-adv-x="1904" vert-adv-y="2816"  />

      
      <glyph glyph-name="uni1EA2" unicode="&#x1EA2;" d="M332 0L72 0L824 2048L1080 2048L1832 0L1572 0L960 1724L944 1724L332 0M428 800L1476 800L1476 580L428 580L428 800M1056 2256L860 2256L860 2472Q965 2478 1008.50 2501Q1052 2524 1052 2572Q1052 2626 989 2651Q926 2676 836 2676L844 2828Q1051 2828 1157.50 2756Q1264 2684 1264 2564Q1264 2462 1199 2415Q1134 2368 1056 2356L1056 2256Z"  horiz-adv-x="1904" vert-adv-y="2816"  />

      
      <glyph glyph-name="uni1EA4" unicode="&#x1EA4;" d="M332 0L72 0L824 2048L1080 2048L1832 0L1572 0L960 1724L944 1724L332 0M428 800L1476 800L1476 580L428 580L428 800M436 2240L844 2604L1064 2604L1472 2240L1184 2240L956 2452L728 2240L436 2240M1364 2484L1560 2844L1852 2844L1572 2484L1364 2484Z"  horiz-adv-x="1904" vert-adv-y="2816"  />

      
      <glyph glyph-name="uni1EA6" unicode="&#x1EA6;" d="M332 0L72 0L824 2048L1080 2048L1832 0L1572 0L960 1724L944 1724L332 0M428 800L1476 800L1476 580L428 580L428 800M1060 2600L1468 2236L1180 2236L952 2448L724 2236L436 2236L840 2600L1060 2600M348 2844L540 2480L336 2480L52 2844L348 2844Z"  horiz-adv-x="1904" vert-adv-y="2816"  />

      
      <glyph glyph-name="uni1EA8" unicode="&#x1EA8;" d="M332 0L72 0L824 2048L1080 2048L1832 0L1572 0L960 1724L944 1724L332 0M428 800L1476 800L1476 580L428 580L428 800M1088 2576L1468 2212L1220 2212L948 2464L680 2212L432 2212L812 2576L1088 2576M1508 2404L1340 2404L1340 2588Q1424 2594 1464 2610.50Q1504 2627 1504 2672Q1504 2720 1450.50 2740Q1397 2760 1316 2760L1324 2892Q1504 2892 1596 2831Q1688 2770 1688 2668Q1688 2578 1632.50 2537.50Q1577 2497 1508 2488L1508 2404Z"  horiz-adv-x="1904" vert-adv-y="2816"  />

      
      <glyph glyph-name="uni1EAA" unicode="&#x1EAA;" d="M332 0L72 0L824 2048L1080 2048L1832 0L1572 0L960 1724L944 1724L332 0M428 800L1476 800L1476 580L428 580L428 800M1044 2520L1464 2184L1216 2184L948 2396L680 2184L432 2184L852 2520L1044 2520M1196 2872L1308 2840Q1308 2759 1242 2691.50Q1176 2624 1080 2624Q1029 2624 994 2638.50Q959 2653 931.50 2672Q904 2691 874.50 2705.50Q845 2720 804 2720Q762 2720 725 2688Q688 2656 688 2620L580 2648Q580 2729 644 2798.50Q708 2868 804 2868Q846 2868 880 2854Q914 2840 945 2822Q976 2804 1008.50 2790Q1041 2776 1080 2776Q1122 2776 1159 2806Q1196 2836 1196 2872Z"  horiz-adv-x="1904" vert-adv-y="2816"  />

      
      <glyph glyph-name="uni1EAC" unicode="&#x1EAC;" d="M332 0L72 0L824 2048L1080 2048L1832 0L1572 0L960 1724L944 1724L332 0M428 800L1476 800L1476 580L428 580L428 800M1160 2232L952 2512L744 2232L520 2232L520 2248L844 2664L1060 2664L1384 2248L1384 2232L1160 2232M952-508Q883-508 833.50-461Q784-414 784-348Q784-282 833.50-235Q883-188 952-188Q1021-188 1070.50-235Q1120-282 1120-348Q1120-414 1070.50-461Q1021-508 952-508Z"  horiz-adv-x="1904" vert-adv-y="2816"  />

      
      <glyph glyph-name="uni1EAE" unicode="&#x1EAE;" d="M332 0L72 0L824 2048L1080 2048L1832 0L1572 0L960 1724L944 1724L332 0M428 800L1476 800L1476 580L428 580L428 800M1140 2516L1364 2516Q1364 2390 1251.50 2309Q1139 2228 944 2228Q749 2228 636.50 2309Q524 2390 524 2516L748 2516Q748 2453 792 2406.50Q836 2360 944 2360Q1049 2360 1094.50 2406.50Q1140 2453 1140 2516M864 2548L1012 2820L1236 2820L1012 2548L864 2548Z"  horiz-adv-x="1904" vert-adv-y="2816"  />

      
      <glyph glyph-name="uni1EB0" unicode="&#x1EB0;" d="M332 0L72 0L824 2048L1080 2048L1832 0L1572 0L960 1724L944 1724L332 0M428 800L1476 800L1476 580L428 580L428 800M1140 2516L1364 2516Q1364 2390 1251.50 2309Q1139 2228 944 2228Q749 2228 636.50 2309Q524 2390 524 2516L748 2516Q748 2453 792 2406.50Q836 2360 944 2360Q1049 2360 1094.50 2406.50Q1140 2453 1140 2516M896 2548L672 2820L896 2820L1044 2548L896 2548Z"  horiz-adv-x="1904" vert-adv-y="2816"  />

      
      <glyph glyph-name="uni1EB2" unicode="&#x1EB2;" d="M332 0L72 0L824 2048L1080 2048L1832 0L1572 0L960 1724L944 1724L332 0M428 800L1476 800L1476 580L428 580L428 800M1124 2544L1340 2544Q1340 2418 1232.50 2337Q1125 2256 936 2256Q750 2256 641 2337Q532 2418 532 2544L748 2544Q748 2481 791 2434.50Q834 2388 936 2388Q1038 2388 1081 2434.50Q1124 2481 1124 2544M1044 2572L856 2572L852 2748Q951 2751 995.50 2766Q1040 2781 1040 2820Q1040 2862 979 2879Q918 2896 828 2896L840 3012Q1041 3012 1142.50 2957.50Q1244 2903 1244 2816Q1244 2738 1181.50 2703.50Q1119 2669 1044 2660L1044 2572Z"  horiz-adv-x="1904" vert-adv-y="2816"  />

      
      <glyph glyph-name="uni1EB4" unicode="&#x1EB4;" d="M332 0L72 0L824 2048L1080 2048L1832 0L1572 0L960 1724L944 1724L332 0M428 800L1476 800L1476 580L428 580L428 800M1132 2556L1352 2556Q1352 2427 1242 2343.50Q1132 2260 940 2260Q751 2260 639.50 2343.50Q528 2427 528 2556L748 2556Q748 2493 791.50 2444.50Q835 2396 940 2396Q1045 2396 1088.50 2444.50Q1132 2493 1132 2556M1220 2960L1340 2924Q1340 2822 1275 2749Q1210 2676 1108 2676Q1034 2676 989 2701Q944 2726 904 2751Q864 2776 804 2776Q759 2776 727.50 2741.50Q696 2707 696 2656L572 2684Q572 2783 637 2861.50Q702 2940 804 2940Q849 2940 886 2925Q923 2910 957.50 2890Q992 2870 1028.50 2855Q1065 2840 1108 2840Q1153 2840 1186.50 2874.50Q1220 2909 1220 2960Z"  horiz-adv-x="1904" vert-adv-y="2816"  />

      
      <glyph glyph-name="uni1EB6" unicode="&#x1EB6;" d="M332 0L72 0L824 2048L1080 2048L1832 0L1572 0L960 1724L944 1724L332 0M428 800L1476 800L1476 580L428 580L428 800M1148 2560L1368 2560Q1368 2398 1256 2295Q1144 2192 952 2192Q763 2192 651.50 2295Q540 2398 540 2560L760 2560Q760 2482 803.50 2423Q847 2364 952 2364Q1057 2364 1102.50 2423Q1148 2482 1148 2560M952-508Q883-508 833.50-461Q784-414 784-348Q784-282 833.50-235Q883-188 952-188Q1021-188 1070.50-235Q1120-282 1120-348Q1120-414 1070.50-461Q1021-508 952-508Z"  horiz-adv-x="1904" vert-adv-y="2816"  />

      
      <glyph glyph-name="uni0391" unicode="&#x0391;" d="M332 0L72 0L824 2048L1080 2048L1832 0L1572 0L960 1724L944 1724L332 0M428 800L1476 800L1476 580L428 580L428 800Z"  horiz-adv-x="1904" vert-adv-y="2816"  />

      
      <glyph glyph-name="uni0386" unicode="&#x0386;" d="M332 0L72 0L824 2048L1080 2048L1832 0L1572 0L960 1724L944 1724L332 0M428 800L1476 800L1476 580L428 580L428 800M336 1708L404 2176L660 2176L500 1708L336 1708Z"  horiz-adv-x="1904" vert-adv-y="2816"  />

      
      <glyph glyph-name="uni1F08" unicode="&#x1F08;" d="M332 0L72 0L824 2048L1080 2048L1832 0L1572 0L960 1724L944 1724L332 0M428 800L1476 800L1476 580L428 580L428 800M600 2048L600 1936Q600 1856 571 1785Q542 1714 486 1655Q430 1596 348 1552L240 1636Q278 1678 303 1724Q328 1770 340 1824Q352 1878 352 1944L352 2048L600 2048Z"  horiz-adv-x="1904" vert-adv-y="2816"  />

      
      <glyph glyph-name="uni1F09" unicode="&#x1F09;" d="M332 0L72 0L824 2048L1080 2048L1832 0L1572 0L960 1724L944 1724L332 0M428 800L1476 800L1476 580L428 580L428 800M260 1936L260 2048L508 2048L508 1944Q508 1878 520 1824Q532 1770 557 1724Q582 1678 620 1636L512 1552Q392 1618 326 1717Q260 1816 260 1936Z"  horiz-adv-x="1904" vert-adv-y="2816"  />

      
      <glyph glyph-name="uni1F0A" unicode="&#x1F0A;" d="M332 0L72 0L824 2048L1080 2048L1832 0L1572 0L960 1724L944 1724L332 0M428 800L1476 800L1476 580L428 580L428 800M556 1612L556 1592L428 1592L112 2028L112 2056L400 2056L556 1612M48 2056L48 1944Q48 1864 18.50 1793Q-11 1722-67.50 1663Q-124 1604-204 1560L-312 1644Q-258 1707-229 1780Q-200 1853-200 1952L-200 2056L48 2056Z"  horiz-adv-x="1904" vert-adv-y="2816"  />

      
      <glyph glyph-name="uni1F0B" unicode="&#x1F0B;" d="M332 0L72 0L824 2048L1080 2048L1832 0L1572 0L960 1724L944 1724L332 0M428 800L1476 800L1476 580L428 580L428 800M576 1604L576 1584L448 1584L132 2020L132 2048L424 2048L576 1604M-208 1936L-208 2048L40 2048L40 1944Q40 1845 67.50 1772Q95 1699 152 1636L44 1552Q-76 1618-142 1717Q-208 1816-208 1936Z"  horiz-adv-x="1904" vert-adv-y="2816"  />

      
      <glyph glyph-name="uni1F0C" unicode="&#x1F0C;" d="M332 0L72 0L824 2048L1080 2048L1832 0L1572 0L960 1724L944 1724L332 0M428 800L1476 800L1476 580L428 580L428 800M192 1584L192 1604L348 2048L636 2048L636 2020L320 1584L192 1584M172 2048L172 1936Q172 1856 142.50 1785Q113 1714 56.50 1655Q0 1596-80 1552L-188 1636Q-134 1699-105 1772Q-76 1845-76 1944L-76 2048L172 2048Z"  horiz-adv-x="1904" vert-adv-y="2816"  />

      
      <glyph glyph-name="uni1F0D" unicode="&#x1F0D;" d="M332 0L72 0L824 2048L1080 2048L1832 0L1572 0L960 1724L944 1724L332 0M428 800L1476 800L1476 580L428 580L428 800M176 1584L176 1604L328 2048L620 2048L620 2020L304 1584L176 1584M16 1552Q-104 1618-170 1717Q-236 1816-236 1936L-236 2048L12 2048L12 1944Q12 1845 41 1772Q70 1699 124 1636L16 1552Z"  horiz-adv-x="1904" vert-adv-y="2816"  />

      
      <glyph glyph-name="uni1F0E" unicode="&#x1F0E;" d="M332 0L72 0L824 2048L1080 2048L1832 0L1572 0L960 1724L944 1724L332 0M428 800L1476 800L1476 580L428 580L428 800M616 2372L736 2336Q736 2237 671 2162.50Q606 2088 504 2088Q449 2088 410.50 2103Q372 2118 341.50 2138Q311 2158 278 2173Q245 2188 200 2188Q155 2188 123.50 2153.50Q92 2119 92 2068L-28 2100Q-28 2199 35 2277.50Q98 2356 200 2356Q247 2356 284 2340.50Q321 2325 355 2304Q389 2283 425 2267.50Q461 2252 504 2252Q549 2252 582.50 2286.50Q616 2321 616 2372M484 2020L484 1924Q484 1846 442 1757Q400 1668 316 1608L196 1676Q238 1733 257 1792Q276 1851 276 1920L276 2020L484 2020Z"  horiz-adv-x="1904" vert-adv-y="2816"  />

      
      <glyph glyph-name="uni1F0F" unicode="&#x1F0F;" d="M332 0L72 0L824 2048L1080 2048L1832 0L1572 0L960 1724L944 1724L332 0M428 800L1476 800L1476 580L428 580L428 800M252 1924L252 2020L460 2020L460 1920Q460 1851 479 1792Q498 1733 540 1676L416 1608Q332 1668 292 1757Q252 1846 252 1924M604 2372L724 2336Q724 2237 659 2162.50Q594 2088 492 2088Q437 2088 398.50 2103Q360 2118 329.50 2138Q299 2158 266 2173Q233 2188 188 2188Q143 2188 111.50 2153.50Q80 2119 80 2068L-40 2100Q-40 2199 23 2277.50Q86 2356 188 2356Q235 2356 272 2340.50Q309 2325 343 2304Q377 2283 413 2267.50Q449 2252 492 2252Q537 2252 570.50 2286.50Q604 2321 604 2372Z"  horiz-adv-x="1904" vert-adv-y="2816"  />

      
      <glyph glyph-name="uni1FB8" unicode="&#x1FB8;" d="M332 0L72 0L824 2048L1080 2048L1832 0L1572 0L960 1724L944 1724L332 0M428 800L1476 800L1476 580L428 580L428 800M1148 2560L1368 2560Q1368 2398 1256 2295Q1144 2192 952 2192Q763 2192 651.50 2295Q540 2398 540 2560L760 2560Q760 2482 803.50 2423Q847 2364 952 2364Q1057 2364 1102.50 2423Q1148 2482 1148 2560Z"  horiz-adv-x="1904" vert-adv-y="2816"  />

      
      <glyph glyph-name="uni1FB9" unicode="&#x1FB9;" d="M332 0L72 0L824 2048L1080 2048L1832 0L1572 0L960 1724L944 1724L332 0M428 800L1476 800L1476 580L428 580L428 800M1420 2560L1420 2360L484 2360L484 2560L1420 2560Z"  horiz-adv-x="1904" vert-adv-y="2816"  />

      
      <glyph glyph-name="uni1FBA" unicode="&#x1FBA;" d="M332 0L72 0L824 2048L1080 2048L1832 0L1572 0L960 1724L944 1724L332 0M428 800L1476 800L1476 580L428 580L428 800M432 1580L116 2020L116 2048L404 2048L560 1604L560 1580L432 1580Z"  horiz-adv-x="1904" vert-adv-y="2816"  />

      
      <glyph glyph-name="uni023A" unicode="&#x023A;" d="M1572 2308L660-260L432-260L1344 2308L1572 2308M332 0L72 0L824 2048L1080 2048L1832 0L1572 0L960 1724L944 1724L332 0M428 800L1476 800L1476 580L428 580L428 800Z"  horiz-adv-x="1904" vert-adv-y="2816"  />

      
      <glyph glyph-name="uni1FBB" unicode="&#x1FBB;" d="M332 0L72 0L824 2048L1080 2048L1832 0L1572 0L960 1724L944 1724L332 0M428 800L1476 800L1476 580L428 580L428 800M340 1728L340 1752L492 2196L784 2196L784 2168L468 1728L340 1728Z"  horiz-adv-x="1904" vert-adv-y="2816"  />

      
      <glyph glyph-name="uni0410" unicode="&#x0410;" d="M332 0L72 0L824 2048L1080 2048L1832 0L1572 0L960 1724L944 1724L332 0M428 800L1476 800L1476 580L428 580L428 800Z"  horiz-adv-x="1904" vert-adv-y="2816"  />

      
      <glyph glyph-name="uni04D0" unicode="&#x04D0;" d="M332 0L72 0L824 2048L1080 2048L1832 0L1572 0L960 1724L944 1724L332 0M428 800L1476 800L1476 580L428 580L428 800M1148 2560L1368 2560Q1368 2398 1256 2295Q1144 2192 952 2192Q763 2192 651.50 2295Q540 2398 540 2560L760 2560Q760 2482 803.50 2423Q847 2364 952 2364Q1057 2364 1102.50 2423Q1148 2482 1148 2560Z"  horiz-adv-x="1904" vert-adv-y="2816"  />

      
      <glyph glyph-name="uni04D2" unicode="&#x04D2;" d="M332 0L72 0L824 2048L1080 2048L1832 0L1572 0L960 1724L944 1724L332 0M428 800L1476 800L1476 580L428 580L428 800M664 2304Q601 2304 552.50 2352.50Q504 2401 504 2464Q504 2533 552.50 2578.50Q601 2624 664 2624Q733 2624 778.50 2578.50Q824 2533 824 2464Q824 2401 778.50 2352.50Q733 2304 664 2304M1240 2304Q1177 2304 1128.50 2352.50Q1080 2401 1080 2464Q1080 2533 1128.50 2578.50Q1177 2624 1240 2624Q1309 2624 1354.50 2578.50Q1400 2533 1400 2464Q1400 2401 1354.50 2352.50Q1309 2304 1240 2304Z"  horiz-adv-x="1904" vert-adv-y="2816"  />

      
      <glyph glyph-name="uni1F88" unicode="&#x1F88;" d="M332 0L72 0L824 2048L1080 2048L1832 0L1572 0L960 1724L944 1724L332 0M428 800L1476 800L1476 580L428 580L428 800M1080-680Q978-680 913-619.50Q848-559 848-424L848-120L1056-120L1056-420Q1056-480 1075-504Q1094-528 1124-528Q1139-528 1157-526Q1175-524 1184-524L1184-664Q1169-670 1144-675Q1119-680 1080-680M600 2048L600 1936Q600 1856 571 1785Q542 1714 486 1655Q430 1596 348 1552L240 1636Q278 1678 303 1724Q328 1770 340 1824Q352 1878 352 1944L352 2048L600 2048Z"  horiz-adv-x="1904" vert-adv-y="2816"  />

      
      <glyph glyph-name="uni1F89" unicode="&#x1F89;" d="M332 0L72 0L824 2048L1080 2048L1832 0L1572 0L960 1724L944 1724L332 0M428 800L1476 800L1476 580L428 580L428 800M1080-680Q978-680 913-619.50Q848-559 848-424L848-120L1056-120L1056-420Q1056-480 1075-504Q1094-528 1124-528Q1139-528 1157-526Q1175-524 1184-524L1184-664Q1169-670 1144-675Q1119-680 1080-680M260 1936L260 2048L508 2048L508 1944Q508 1878 520 1824Q532 1770 557 1724Q582 1678 620 1636L512 1552Q392 1618 326 1717Q260 1816 260 1936Z"  horiz-adv-x="1904" vert-adv-y="2816"  />

      
      <glyph glyph-name="uni1F8A" unicode="&#x1F8A;" d="M332 0L72 0L824 2048L1080 2048L1832 0L1572 0L960 1724L944 1724L332 0M428 800L1476 800L1476 580L428 580L428 800M1080-680Q978-680 913-619.50Q848-559 848-424L848-120L1056-120L1056-420Q1056-480 1075-504Q1094-528 1124-528Q1139-528 1157-526Q1175-524 1184-524L1184-664Q1169-670 1144-675Q1119-680 1080-680M556 1612L556 1592L428 1592L112 2028L112 2056L400 2056L556 1612M48 2056L48 1944Q48 1864 18.50 1793Q-11 1722-67.50 1663Q-124 1604-204 1560L-312 1644Q-258 1707-229 1780Q-200 1853-200 1952L-200 2056L48 2056Z"  horiz-adv-x="1904" vert-adv-y="2816"  />

      
      <glyph glyph-name="uni1F8B" unicode="&#x1F8B;" d="M332 0L72 0L824 2048L1080 2048L1832 0L1572 0L960 1724L944 1724L332 0M428 800L1476 800L1476 580L428 580L428 800M1080-680Q978-680 913-619.50Q848-559 848-424L848-120L1056-120L1056-420Q1056-480 1075-504Q1094-528 1124-528Q1139-528 1157-526Q1175-524 1184-524L1184-664Q1169-670 1144-675Q1119-680 1080-680M576 1604L576 1584L448 1584L132 2020L132 2048L424 2048L576 1604M-208 1936L-208 2048L40 2048L40 1944Q40 1845 67.50 1772Q95 1699 152 1636L44 1552Q-76 1618-142 1717Q-208 1816-208 1936Z"  horiz-adv-x="1904" vert-adv-y="2816"  />

      
      <glyph glyph-name="uni1F8C" unicode="&#x1F8C;" d="M332 0L72 0L824 2048L1080 2048L1832 0L1572 0L960 1724L944 1724L332 0M428 800L1476 800L1476 580L428 580L428 800M192 1584L192 1604L348 2048L636 2048L636 2020L320 1584L192 1584M172 2048L172 1936Q172 1856 142.50 1785Q113 1714 56.50 1655Q0 1596-80 1552L-188 1636Q-134 1699-105 1772Q-76 1845-76 1944L-76 2048L172 2048M1080-680Q978-680 913-619.50Q848-559 848-424L848-120L1056-120L1056-420Q1056-480 1075-504Q1094-528 1124-528Q1139-528 1157-526Q1175-524 1184-524L1184-664Q1169-670 1144-675Q1119-680 1080-680Z"  horiz-adv-x="1904" vert-adv-y="2816"  />

      
      <glyph glyph-name="uni1F8D" unicode="&#x1F8D;" d="M332 0L72 0L824 2048L1080 2048L1832 0L1572 0L960 1724L944 1724L332 0M428 800L1476 800L1476 580L428 580L428 800M1080-680Q978-680 913-619.50Q848-559 848-424L848-120L1056-120L1056-420Q1056-480 1075-504Q1094-528 1124-528Q1139-528 1157-526Q1175-524 1184-524L1184-664Q1169-670 1144-675Q1119-680 1080-680M176 1584L176 1604L328 2048L620 2048L620 2020L304 1584L176 1584M16 1552Q-104 1618-170 1717Q-236 1816-236 1936L-236 2048L12 2048L12 1944Q12 1845 41 1772Q70 1699 124 1636L16 1552Z"  horiz-adv-x="1904" vert-adv-y="2816"  />

      
      <glyph glyph-name="uni1F8E" unicode="&#x1F8E;" d="M332 0L72 0L824 2048L1080 2048L1832 0L1572 0L960 1724L944 1724L332 0M428 800L1476 800L1476 580L428 580L428 800M616 2372L736 2336Q736 2237 671 2162.50Q606 2088 504 2088Q449 2088 410.50 2103Q372 2118 341.50 2138Q311 2158 278 2173Q245 2188 200 2188Q155 2188 123.50 2153.50Q92 2119 92 2068L-28 2100Q-28 2199 35 2277.50Q98 2356 200 2356Q247 2356 284 2340.50Q321 2325 355 2304Q389 2283 425 2267.50Q461 2252 504 2252Q549 2252 582.50 2286.50Q616 2321 616 2372M484 2020L484 1924Q484 1846 442 1757Q400 1668 316 1608L196 1676Q238 1733 257 1792Q276 1851 276 1920L276 2020L484 2020M1080-680Q978-680 913-619.50Q848-559 848-424L848-120L1056-120L1056-420Q1056-480 1075-504Q1094-528 1124-528Q1139-528 1157-526Q1175-524 1184-524L1184-664Q1169-670 1144-675Q1119-680 1080-680Z"  horiz-adv-x="1904" vert-adv-y="2816"  />

      
      <glyph glyph-name="uni1F8F" unicode="&#x1F8F;" d="M332 0L72 0L824 2048L1080 2048L1832 0L1572 0L960 1724L944 1724L332 0M428 800L1476 800L1476 580L428 580L428 800M1080-680Q978-680 913-619.50Q848-559 848-424L848-120L1056-120L1056-420Q1056-480 1075-504Q1094-528 1124-528Q1139-528 1157-526Q1175-524 1184-524L1184-664Q1169-670 1144-675Q1119-680 1080-680M252 1924L252 2020L460 2020L460 1920Q460 1851 479 1792Q498 1733 540 1676L416 1608Q332 1668 292 1757Q252 1846 252 1924M604 2372L724 2336Q724 2237 659 2162.50Q594 2088 492 2088Q437 2088 398.50 2103Q360 2118 329.50 2138Q299 2158 266 2173Q233 2188 188 2188Q143 2188 111.50 2153.50Q80 2119 80 2068L-40 2100Q-40 2199 23 2277.50Q86 2356 188 2356Q235 2356 272 2340.50Q309 2325 343 2304Q377 2283 413 2267.50Q449 2252 492 2252Q537 2252 570.50 2286.50Q604 2321 604 2372Z"  horiz-adv-x="1904" vert-adv-y="2816"  />

      
      <glyph glyph-name="uni1FBC" unicode="&#x1FBC;" d="M332 0L72 0L824 2048L1080 2048L1832 0L1572 0L960 1724L944 1724L332 0M428 800L1476 800L1476 580L428 580L428 800M1080-680Q978-680 913-619.50Q848-559 848-424L848-120L1056-120L1056-420Q1056-480 1075-504Q1094-528 1124-528Q1139-528 1157-526Q1175-524 1184-524L1184-664Q1169-670 1144-675Q1119-680 1080-680Z"  horiz-adv-x="1904" vert-adv-y="2816"  />

      
      <glyph glyph-name="uni039B" unicode="&#x039B;" d="M332 0L72 0L824 2048L1080 2048L1832 0L1572 0L960 1724L944 1724L332 0Z"  horiz-adv-x="1904" vert-adv-y="2816"  />

      
      <glyph glyph-name="unic6" unicode="&#xc6;" d="M72 0L1064 2048L2588 2048L2588 1828L1600 1828L1600 1136L2524 1136L2524 916L1600 916L1600 220L2604 220L2604 0L1352 0L1352 1828L1204 1828L344 0L72 0M508 580L508 800L1476 800L1476 580L508 580Z"  horiz-adv-x="2788" vert-adv-y="2816"  />

      
      <glyph glyph-name="uni01E2" unicode="&#x01E2;" d="M72 0L1064 2048L2588 2048L2588 1828L1600 1828L1600 1136L2524 1136L2524 916L1600 916L1600 220L2604 220L2604 0L1352 0L1352 1828L1204 1828L344 0L72 0M508 580L508 800L1476 800L1476 580L508 580M2288 2560L2288 2360L1352 2360L1352 2560L2288 2560Z"  horiz-adv-x="2788" vert-adv-y="2816"  />

      
      <glyph glyph-name="uni01FC" unicode="&#x01FC;" d="M72 0L1064 2048L2588 2048L2588 1828L1600 1828L1600 1136L2524 1136L2524 916L1600 916L1600 220L2604 220L2604 0L1352 0L1352 1828L1204 1828L344 0L72 0M508 580L508 800L1476 800L1476 580L508 580M1712 2256L1956 2720L2232 2720L1920 2256L1712 2256Z"  horiz-adv-x="2788" vert-adv-y="2816"  />

      
      <glyph glyph-name="uni04D4" unicode="&#x04D4;" d="M72 0L1064 2048L2588 2048L2588 1828L1600 1828L1600 1136L2524 1136L2524 916L1600 916L1600 220L2604 220L2604 0L1352 0L1352 1828L1204 1828L344 0L72 0M508 580L508 800L1476 800L1476 580L508 580Z"  horiz-adv-x="2788" vert-adv-y="2816"  />

      
      <glyph glyph-name="uni42" unicode="&#x42;" d="M248 0L248 2048L964 2048Q1178 2048 1317 1974.50Q1456 1901 1524 1777.50Q1592 1654 1592 1504Q1592 1372 1545.50 1286Q1499 1200 1423.50 1150Q1348 1100 1260 1076L1260 1056Q1354 1050 1449 990Q1544 930 1608 818Q1672 706 1672 544Q1672 390 1602 267Q1532 144 1381 72Q1230 0 988 0L248 0M496 220L988 220Q1231 220 1333.50 314.50Q1436 409 1436 544Q1436 648 1383 736.50Q1330 825 1232 878.50Q1134 932 1000 932L496 932L496 220M496 1148L956 1148Q1068 1148 1158.50 1192Q1249 1236 1302.50 1316Q1356 1396 1356 1504Q1356 1639 1262 1733.50Q1168 1828 964 1828L496 1828L496 1148Z"  horiz-adv-x="1832" vert-adv-y="2816"  />

      
      <glyph glyph-name="uni1E02" unicode="&#x1E02;" d="M248 0L248 2048L964 2048Q1178 2048 1317 1974.50Q1456 1901 1524 1777.50Q1592 1654 1592 1504Q1592 1372 1545.50 1286Q1499 1200 1423.50 1150Q1348 1100 1260 1076L1260 1056Q1354 1050 1449 990Q1544 930 1608 818Q1672 706 1672 544Q1672 390 1602 267Q1532 144 1381 72Q1230 0 988 0L248 0M496 220L988 220Q1231 220 1333.50 314.50Q1436 409 1436 544Q1436 648 1383 736.50Q1330 825 1232 878.50Q1134 932 1000 932L496 932L496 220M496 1148L956 1148Q1068 1148 1158.50 1192Q1249 1236 1302.50 1316Q1356 1396 1356 1504Q1356 1639 1262 1733.50Q1168 1828 964 1828L496 1828L496 1148M876 2304Q807 2304 757.50 2351Q708 2398 708 2464Q708 2530 757.50 2577Q807 2624 876 2624Q945 2624 994.50 2577Q1044 2530 1044 2464Q1044 2398 994.50 2351Q945 2304 876 2304Z"  horiz-adv-x="1832" vert-adv-y="2816"  />

      
      <glyph glyph-name="uni1E04" unicode="&#x1E04;" d="M248 0L248 2048L964 2048Q1178 2048 1317 1974.50Q1456 1901 1524 1777.50Q1592 1654 1592 1504Q1592 1372 1545.50 1286Q1499 1200 1423.50 1150Q1348 1100 1260 1076L1260 1056Q1354 1050 1449 990Q1544 930 1608 818Q1672 706 1672 544Q1672 390 1602 267Q1532 144 1381 72Q1230 0 988 0L248 0M496 220L988 220Q1231 220 1333.50 314.50Q1436 409 1436 544Q1436 648 1383 736.50Q1330 825 1232 878.50Q1134 932 1000 932L496 932L496 220M496 1148L956 1148Q1068 1148 1158.50 1192Q1249 1236 1302.50 1316Q1356 1396 1356 1504Q1356 1639 1262 1733.50Q1168 1828 964 1828L496 1828L496 1148M888-508Q819-508 769.50-461Q720-414 720-348Q720-282 769.50-235Q819-188 888-188Q957-188 1006.50-235Q1056-282 1056-348Q1056-414 1006.50-461Q957-508 888-508Z"  horiz-adv-x="1832" vert-adv-y="2816"  />

      
      <glyph glyph-name="uni1E06" unicode="&#x1E06;" d="M248 0L248 2048L964 2048Q1178 2048 1317 1974.50Q1456 1901 1524 1777.50Q1592 1654 1592 1504Q1592 1372 1545.50 1286Q1499 1200 1423.50 1150Q1348 1100 1260 1076L1260 1056Q1354 1050 1449 990Q1544 930 1608 818Q1672 706 1672 544Q1672 390 1602 267Q1532 144 1381 72Q1230 0 988 0L248 0M496 220L988 220Q1231 220 1333.50 314.50Q1436 409 1436 544Q1436 648 1383 736.50Q1330 825 1232 878.50Q1134 932 1000 932L496 932L496 220M496 1148L956 1148Q1068 1148 1158.50 1192Q1249 1236 1302.50 1316Q1356 1396 1356 1504Q1356 1639 1262 1733.50Q1168 1828 964 1828L496 1828L496 1148M1356-252L1356-452L420-452L420-252L1356-252Z"  horiz-adv-x="1832" vert-adv-y="2816"  />

      
      <glyph glyph-name="uni0243" unicode="&#x0243;" d="M404 0L404 2048L1120 2048Q1334 2048 1473 1974.50Q1612 1901 1680 1777.50Q1748 1654 1748 1504Q1748 1372 1701.50 1286Q1655 1200 1579.50 1150Q1504 1100 1416 1076L1416 1056Q1510 1050 1605 990Q1700 930 1764 818Q1828 706 1828 544Q1828 390 1758 267Q1688 144 1537 72Q1386 0 1144 0L404 0M652 220L1144 220Q1387 220 1489.50 314.50Q1592 409 1592 544Q1592 648 1539 736.50Q1486 825 1388 878.50Q1290 932 1156 932L652 932L652 220M652 1148L1112 1148Q1224 1148 1314.50 1192Q1405 1236 1458.50 1316Q1512 1396 1512 1504Q1512 1639 1418 1733.50Q1324 1828 1120 1828L652 1828L652 1148M88 484L88 668L968 668L968 484L88 484Z"  horiz-adv-x="1988" vert-adv-y="2816"  />

      
      <glyph glyph-name="uni0181" unicode="&#x0181;" d="M744 1828L548 1828Q468 1828 429.50 1792.50Q391 1757 379.50 1700.50Q368 1644 368 1580L368 1504L136 1504L136 1640Q136 1752 183 1844.50Q230 1937 321 1992.50Q412 2048 544 2048L744 2048L744 1828M676 0L676 2048L1392 2048Q1606 2048 1745 1974.50Q1884 1901 1952 1777.50Q2020 1654 2020 1504Q2020 1372 1973.50 1286Q1927 1200 1851.50 1150Q1776 1100 1688 1076L1688 1056Q1782 1050 1877 990Q1972 930 2036 818Q2100 706 2100 544Q2100 390 2030 267Q1960 144 1809 72Q1658 0 1416 0L676 0M924 220L1416 220Q1659 220 1761.50 314.50Q1864 409 1864 544Q1864 648 1811 736.50Q1758 825 1660 878.50Q1562 932 1428 932L924 932L924 220M924 1148L1384 1148Q1496 1148 1586.50 1192Q1677 1236 1730.50 1316Q1784 1396 1784 1504Q1784 1639 1690 1733.50Q1596 1828 1392 1828L924 1828L924 1148Z"  horiz-adv-x="2260" vert-adv-y="2816"  />

      
      <glyph glyph-name="uni0412" unicode="&#x0412;" d="M248 0L248 2048L964 2048Q1178 2048 1317 1974.50Q1456 1901 1524 1777.50Q1592 1654 1592 1504Q1592 1372 1545.50 1286Q1499 1200 1423.50 1150Q1348 1100 1260 1076L1260 1056Q1354 1050 1449 990Q1544 930 1608 818Q1672 706 1672 544Q1672 390 1602 267Q1532 144 1381 72Q1230 0 988 0L248 0M496 220L988 220Q1231 220 1333.50 314.50Q1436 409 1436 544Q1436 648 1383 736.50Q1330 825 1232 878.50Q1134 932 1000 932L496 932L496 220M496 1148L956 1148Q1068 1148 1158.50 1192Q1249 1236 1302.50 1316Q1356 1396 1356 1504Q1356 1639 1262 1733.50Q1168 1828 964 1828L496 1828L496 1148Z"  horiz-adv-x="1832" vert-adv-y="2816"  />

      
      <glyph glyph-name="uni0392" unicode="&#x0392;" d="M248 0L248 2048L964 2048Q1178 2048 1317 1974.50Q1456 1901 1524 1777.50Q1592 1654 1592 1504Q1592 1372 1545.50 1286Q1499 1200 1423.50 1150Q1348 1100 1260 1076L1260 1056Q1354 1050 1449 990Q1544 930 1608 818Q1672 706 1672 544Q1672 390 1602 267Q1532 144 1381 72Q1230 0 988 0L248 0M496 220L988 220Q1231 220 1333.50 314.50Q1436 409 1436 544Q1436 648 1383 736.50Q1330 825 1232 878.50Q1134 932 1000 932L496 932L496 220M496 1148L956 1148Q1068 1148 1158.50 1192Q1249 1236 1302.50 1316Q1356 1396 1356 1504Q1356 1639 1262 1733.50Q1168 1828 964 1828L496 1828L496 1148Z"  horiz-adv-x="1832" vert-adv-y="2816"  />

      
      <glyph glyph-name="uni43" unicode="&#x43;" d="M1896 1408L1648 1408Q1626 1515 1571.50 1596Q1517 1677 1439.50 1732.50Q1362 1788 1268 1816Q1174 1844 1072 1844Q886 1844 735.50 1750Q585 1656 496.50 1473Q408 1290 408 1024Q408 758 496.50 575Q585 392 735.50 298Q886 204 1072 204Q1174 204 1268 232Q1362 260 1439.50 315.50Q1517 371 1571.50 452.50Q1626 534 1648 640L1896 640Q1868 483 1794 359Q1720 235 1610 148.50Q1500 62 1363.50 17Q1227-28 1072-28Q810-28 606 100Q402 228 285 464Q168 700 168 1024Q168 1348 285 1584Q402 1820 606 1948Q810 2076 1072 2076Q1227 2076 1363.50 2031Q1500 1986 1610 1899.50Q1720 1813 1794 1689.50Q1868 1566 1896 1408Z"  horiz-adv-x="2048" vert-adv-y="2816"  />

      
      <glyph glyph-name="uni0187" unicode="&#x0187;" d="M1896 1408L1660 1408L1660 1664Q1660 1796 1713.50 1888Q1767 1980 1857.50 2028Q1948 2076 2060 2076Q2096 2076 2132.50 2074.50Q2169 2073 2196 2064L2196 1864Q2181 1867 2161 1869.50Q2141 1872 2120 1872Q2056 1872 2005.50 1853.50Q1955 1835 1925.50 1789.50Q1896 1744 1896 1664L1896 1408M1896 1408L1648 1408Q1626 1515 1571.50 1596Q1517 1677 1439.50 1732.50Q1362 1788 1268 1816Q1174 1844 1072 1844Q886 1844 735.50 1750Q585 1656 496.50 1473Q408 1290 408 1024Q408 758 496.50 575Q585 392 735.50 298Q886 204 1072 204Q1174 204 1268 232Q1362 260 1439.50 315.50Q1517 371 1571.50 452.50Q1626 534 1648 640L1896 640Q1868 483 1794 359Q1720 235 1610 148.50Q1500 62 1363.50 17Q1227-28 1072-28Q810-28 606 100Q402 228 285 464Q168 700 168 1024Q168 1348 285 1584Q402 1820 606 1948Q810 2076 1072 2076Q1227 2076 1363.50 2031Q1500 1986 1610 1899.50Q1720 1813 1794 1689.50Q1868 1566 1896 1408Z"  horiz-adv-x="2172" vert-adv-y="2816"  />

      
      <glyph glyph-name="unic7" unicode="&#xc7;" d="M1896 1408L1648 1408Q1626 1515 1571.50 1596Q1517 1677 1439.50 1732.50Q1362 1788 1268 1816Q1174 1844 1072 1844Q886 1844 735.50 1750Q585 1656 496.50 1473Q408 1290 408 1024Q408 758 496.50 575Q585 392 735.50 298Q886 204 1072 204Q1174 204 1268 232Q1362 260 1439.50 315.50Q1517 371 1571.50 452.50Q1626 534 1648 640L1896 640Q1868 483 1794 359Q1720 235 1610 148.50Q1500 62 1363.50 17Q1227-28 1072-28Q810-28 606 100Q402 228 285 464Q168 700 168 1024Q168 1348 285 1584Q402 1820 606 1948Q810 2076 1072 2076Q1227 2076 1363.50 2031Q1500 1986 1610 1899.50Q1720 1813 1794 1689.50Q1868 1566 1896 1408M968-8L1164-8L1148-88Q1226-100 1291-153.50Q1356-207 1356-324Q1356-453 1249.50-534.50Q1143-616 936-616L928-460Q1021-460 1082.50-430.50Q1144-401 1144-332Q1144-263 1093-238Q1042-213 928-204L968-8Z"  horiz-adv-x="2048" vert-adv-y="2816"  />

      
      <glyph glyph-name="uni0106" unicode="&#x0106;" d="M1896 1408L1648 1408Q1626 1515 1571.50 1596Q1517 1677 1439.50 1732.50Q1362 1788 1268 1816Q1174 1844 1072 1844Q886 1844 735.50 1750Q585 1656 496.50 1473Q408 1290 408 1024Q408 758 496.50 575Q585 392 735.50 298Q886 204 1072 204Q1174 204 1268 232Q1362 260 1439.50 315.50Q1517 371 1571.50 452.50Q1626 534 1648 640L1896 640Q1868 483 1794 359Q1720 235 1610 148.50Q1500 62 1363.50 17Q1227-28 1072-28Q810-28 606 100Q402 228 285 464Q168 700 168 1024Q168 1348 285 1584Q402 1820 606 1948Q810 2076 1072 2076Q1227 2076 1363.50 2031Q1500 1986 1610 1899.50Q1720 1813 1794 1689.50Q1868 1566 1896 1408M964 2256L1208 2720L1484 2720L1172 2256L964 2256Z"  horiz-adv-x="2048" vert-adv-y="2816"  />

      
      <glyph glyph-name="uni0108" unicode="&#x0108;" d="M1896 1408L1648 1408Q1626 1515 1571.50 1596Q1517 1677 1439.50 1732.50Q1362 1788 1268 1816Q1174 1844 1072 1844Q886 1844 735.50 1750Q585 1656 496.50 1473Q408 1290 408 1024Q408 758 496.50 575Q585 392 735.50 298Q886 204 1072 204Q1174 204 1268 232Q1362 260 1439.50 315.50Q1517 371 1571.50 452.50Q1626 534 1648 640L1896 640Q1868 483 1794 359Q1720 235 1610 148.50Q1500 62 1363.50 17Q1227-28 1072-28Q810-28 606 100Q402 228 285 464Q168 700 168 1024Q168 1348 285 1584Q402 1820 606 1948Q810 2076 1072 2076Q1227 2076 1363.50 2031Q1500 1986 1610 1899.50Q1720 1813 1794 1689.50Q1868 1566 1896 1408M1280 2232L1072 2512L864 2232L640 2232L640 2248L964 2664L1180 2664L1504 2248L1504 2232L1280 2232Z"  horiz-adv-x="2048" vert-adv-y="2816"  />

      
      <glyph glyph-name="uni010A" unicode="&#x010A;" d="M1896 1408L1648 1408Q1626 1515 1571.50 1596Q1517 1677 1439.50 1732.50Q1362 1788 1268 1816Q1174 1844 1072 1844Q886 1844 735.50 1750Q585 1656 496.50 1473Q408 1290 408 1024Q408 758 496.50 575Q585 392 735.50 298Q886 204 1072 204Q1174 204 1268 232Q1362 260 1439.50 315.50Q1517 371 1571.50 452.50Q1626 534 1648 640L1896 640Q1868 483 1794 359Q1720 235 1610 148.50Q1500 62 1363.50 17Q1227-28 1072-28Q810-28 606 100Q402 228 285 464Q168 700 168 1024Q168 1348 285 1584Q402 1820 606 1948Q810 2076 1072 2076Q1227 2076 1363.50 2031Q1500 1986 1610 1899.50Q1720 1813 1794 1689.50Q1868 1566 1896 1408M1072 2304Q1003 2304 953.50 2351Q904 2398 904 2464Q904 2530 953.50 2577Q1003 2624 1072 2624Q1141 2624 1190.50 2577Q1240 2530 1240 2464Q1240 2398 1190.50 2351Q1141 2304 1072 2304Z"  horiz-adv-x="2048" vert-adv-y="2816"  />

      
      <glyph glyph-name="uni010C" unicode="&#x010C;" d="M1896 1408L1648 1408Q1626 1515 1571.50 1596Q1517 1677 1439.50 1732.50Q1362 1788 1268 1816Q1174 1844 1072 1844Q886 1844 735.50 1750Q585 1656 496.50 1473Q408 1290 408 1024Q408 758 496.50 575Q585 392 735.50 298Q886 204 1072 204Q1174 204 1268 232Q1362 260 1439.50 315.50Q1517 371 1571.50 452.50Q1626 534 1648 640L1896 640Q1868 483 1794 359Q1720 235 1610 148.50Q1500 62 1363.50 17Q1227-28 1072-28Q810-28 606 100Q402 228 285 464Q168 700 168 1024Q168 1348 285 1584Q402 1820 606 1948Q810 2076 1072 2076Q1227 2076 1363.50 2031Q1500 1986 1610 1899.50Q1720 1813 1794 1689.50Q1868 1566 1896 1408M864 2664L1072 2384L1280 2664L1504 2664L1504 2648L1180 2232L964 2232L640 2648L640 2664L864 2664Z"  horiz-adv-x="2048" vert-adv-y="2816"  />

      
      <glyph glyph-name="uni1E08" unicode="&#x1E08;" d="M1896 1408L1648 1408Q1626 1515 1571.50 1596Q1517 1677 1439.50 1732.50Q1362 1788 1268 1816Q1174 1844 1072 1844Q886 1844 735.50 1750Q585 1656 496.50 1473Q408 1290 408 1024Q408 758 496.50 575Q585 392 735.50 298Q886 204 1072 204Q1174 204 1268 232Q1362 260 1439.50 315.50Q1517 371 1571.50 452.50Q1626 534 1648 640L1896 640Q1868 483 1794 359Q1720 235 1610 148.50Q1500 62 1363.50 17Q1227-28 1072-28Q810-28 606 100Q402 228 285 464Q168 700 168 1024Q168 1348 285 1584Q402 1820 606 1948Q810 2076 1072 2076Q1227 2076 1363.50 2031Q1500 1986 1610 1899.50Q1720 1813 1794 1689.50Q1868 1566 1896 1408M968-8L1164-8L1148-88Q1226-100 1291-153.50Q1356-207 1356-324Q1356-453 1249.50-534.50Q1143-616 936-616L928-460Q1021-460 1082.50-430.50Q1144-401 1144-332Q1144-263 1093-238Q1042-213 928-204L968-8M964 2256L1208 2720L1484 2720L1172 2256L964 2256Z"  horiz-adv-x="2048" vert-adv-y="2816"  />

      
      <glyph glyph-name="uni023B" unicode="&#x023B;" d="M464-260L1376 2308L1604 2308L692-260L464-260M1896 1408L1648 1408Q1626 1515 1571.50 1596Q1517 1677 1439.50 1732.50Q1362 1788 1268 1816Q1174 1844 1072 1844Q886 1844 735.50 1750Q585 1656 496.50 1473Q408 1290 408 1024Q408 758 496.50 575Q585 392 735.50 298Q886 204 1072 204Q1174 204 1268 232Q1362 260 1439.50 315.50Q1517 371 1571.50 452.50Q1626 534 1648 640L1896 640Q1868 483 1794 359Q1720 235 1610 148.50Q1500 62 1363.50 17Q1227-28 1072-28Q810-28 606 100Q402 228 285 464Q168 700 168 1024Q168 1348 285 1584Q402 1820 606 1948Q810 2076 1072 2076Q1227 2076 1363.50 2031Q1500 1986 1610 1899.50Q1720 1813 1794 1689.50Q1868 1566 1896 1408Z"  horiz-adv-x="2048" vert-adv-y="2816"  />

      
      <glyph glyph-name="uni0186" unicode="&#x0186;" d="M152 640L400 640Q423 534 477 452.50Q531 371 608.50 315.50Q686 260 780 232Q874 204 976 204Q1162 204 1312.50 298Q1463 392 1551.50 575Q1640 758 1640 1024Q1640 1290 1551.50 1473Q1463 1656 1312.50 1750Q1162 1844 976 1844Q874 1844 780 1816Q686 1788 608.50 1732.50Q531 1677 477 1596Q423 1515 400 1408L152 1408Q181 1566 254.50 1689.50Q328 1813 438 1899.50Q548 1986 685 2031Q822 2076 976 2076Q1238 2076 1442 1948Q1646 1820 1763 1584Q1880 1348 1880 1024Q1880 700 1763 464Q1646 228 1442 100Q1238-28 976-28Q822-28 685 17Q548 62 438 148.50Q328 235 254.50 359Q181 483 152 640Z"  horiz-adv-x="2048" vert-adv-y="2816"  />

      
      <glyph glyph-name="uni03F9" unicode="&#x03F9;" d="M1896 1408L1648 1408Q1626 1515 1571.50 1596Q1517 1677 1439.50 1732.50Q1362 1788 1268 1816Q1174 1844 1072 1844Q886 1844 735.50 1750Q585 1656 496.50 1473Q408 1290 408 1024Q408 758 496.50 575Q585 392 735.50 298Q886 204 1072 204Q1174 204 1268 232Q1362 260 1439.50 315.50Q1517 371 1571.50 452.50Q1626 534 1648 640L1896 640Q1868 483 1794 359Q1720 235 1610 148.50Q1500 62 1363.50 17Q1227-28 1072-28Q810-28 606 100Q402 228 285 464Q168 700 168 1024Q168 1348 285 1584Q402 1820 606 1948Q810 2076 1072 2076Q1227 2076 1363.50 2031Q1500 1986 1610 1899.50Q1720 1813 1794 1689.50Q1868 1566 1896 1408Z"  horiz-adv-x="2048" vert-adv-y="2816"  />

      
      <glyph glyph-name="uni44" unicode="&#x44;" d="M880 0L248 0L248 2048L908 2048Q1206 2048 1418 1925.50Q1630 1803 1743 1574.50Q1856 1346 1856 1028Q1856 708 1742 477.50Q1628 247 1410 123.50Q1192 0 880 0M496 220L864 220Q1118 220 1285 318Q1452 416 1534 597Q1616 778 1616 1028Q1616 1276 1535 1455.50Q1454 1635 1293 1731.50Q1132 1828 892 1828L496 1828L496 220Z"  horiz-adv-x="2024" vert-adv-y="2816"  />

      
      <glyph glyph-name="uni018A" unicode="&#x018A;" d="M136 1504L136 1640Q136 1752 183 1844.50Q230 1937 321 1992.50Q412 2048 544 2048L744 2048L744 1828L548 1828Q468 1828 429.50 1792.50Q391 1757 379.50 1700.50Q368 1644 368 1580L368 1504L136 1504M1324 0L692 0L692 2048L1352 2048Q1650 2048 1862 1925.50Q2074 1803 2187 1574.50Q2300 1346 2300 1028Q2300 708 2186 477.50Q2072 247 1854 123.50Q1636 0 1324 0M940 220L1308 220Q1562 220 1729 318Q1896 416 1978 597Q2060 778 2060 1028Q2060 1276 1979 1455.50Q1898 1635 1737 1731.50Q1576 1828 1336 1828L940 1828L940 220Z"  horiz-adv-x="2468" vert-adv-y="2816"  />

      
      <glyph glyph-name="uni010E" unicode="&#x010E;" d="M880 0L248 0L248 2048L908 2048Q1206 2048 1418 1925.50Q1630 1803 1743 1574.50Q1856 1346 1856 1028Q1856 708 1742 477.50Q1628 247 1410 123.50Q1192 0 880 0M496 220L864 220Q1118 220 1285 318Q1452 416 1534 597Q1616 778 1616 1028Q1616 1276 1535 1455.50Q1454 1635 1293 1731.50Q1132 1828 892 1828L496 1828L496 220M640 2664L848 2384L1056 2664L1280 2664L1280 2648L956 2232L740 2232L416 2648L416 2664L640 2664Z"  horiz-adv-x="2024" vert-adv-y="2816"  />

      
      <glyph glyph-name="uni1E0A" unicode="&#x1E0A;" d="M880 0L248 0L248 2048L908 2048Q1206 2048 1418 1925.50Q1630 1803 1743 1574.50Q1856 1346 1856 1028Q1856 708 1742 477.50Q1628 247 1410 123.50Q1192 0 880 0M496 220L864 220Q1118 220 1285 318Q1452 416 1534 597Q1616 778 1616 1028Q1616 1276 1535 1455.50Q1454 1635 1293 1731.50Q1132 1828 892 1828L496 1828L496 220M848 2304Q779 2304 729.50 2351Q680 2398 680 2464Q680 2530 729.50 2577Q779 2624 848 2624Q917 2624 966.50 2577Q1016 2530 1016 2464Q1016 2398 966.50 2351Q917 2304 848 2304Z"  horiz-adv-x="2024" vert-adv-y="2816"  />

      
      <glyph glyph-name="uni1E0C" unicode="&#x1E0C;" d="M880 0L248 0L248 2048L908 2048Q1206 2048 1418 1925.50Q1630 1803 1743 1574.50Q1856 1346 1856 1028Q1856 708 1742 477.50Q1628 247 1410 123.50Q1192 0 880 0M496 220L864 220Q1118 220 1285 318Q1452 416 1534 597Q1616 778 1616 1028Q1616 1276 1535 1455.50Q1454 1635 1293 1731.50Q1132 1828 892 1828L496 1828L496 220M856-508Q787-508 737.50-461Q688-414 688-348Q688-282 737.50-235Q787-188 856-188Q925-188 974.50-235Q1024-282 1024-348Q1024-414 974.50-461Q925-508 856-508Z"  horiz-adv-x="2024" vert-adv-y="2816"  />

      
      <glyph glyph-name="uni1E0E" unicode="&#x1E0E;" d="M880 0L248 0L248 2048L908 2048Q1206 2048 1418 1925.50Q1630 1803 1743 1574.50Q1856 1346 1856 1028Q1856 708 1742 477.50Q1628 247 1410 123.50Q1192 0 880 0M496 220L864 220Q1118 220 1285 318Q1452 416 1534 597Q1616 778 1616 1028Q1616 1276 1535 1455.50Q1454 1635 1293 1731.50Q1132 1828 892 1828L496 1828L496 220M1324-252L1324-452L388-452L388-252L1324-252Z"  horiz-adv-x="2024" vert-adv-y="2816"  />

      
      <glyph glyph-name="uni1E10" unicode="&#x1E10;" d="M880 0L248 0L248 2048L908 2048Q1206 2048 1418 1925.50Q1630 1803 1743 1574.50Q1856 1346 1856 1028Q1856 708 1742 477.50Q1628 247 1410 123.50Q1192 0 880 0M496 220L864 220Q1118 220 1285 318Q1452 416 1534 597Q1616 778 1616 1028Q1616 1276 1535 1455.50Q1454 1635 1293 1731.50Q1132 1828 892 1828L496 1828L496 220M622-680L734-162L976-162L806-680L622-680Z"  horiz-adv-x="2024" vert-adv-y="2816"  />

      
      <glyph glyph-name="uni1E12" unicode="&#x1E12;" d="M880 0L248 0L248 2048L908 2048Q1206 2048 1418 1925.50Q1630 1803 1743 1574.50Q1856 1346 1856 1028Q1856 708 1742 477.50Q1628 247 1410 123.50Q1192 0 880 0M496 220L864 220Q1118 220 1285 318Q1452 416 1534 597Q1616 778 1616 1028Q1616 1276 1535 1455.50Q1454 1635 1293 1731.50Q1132 1828 892 1828L496 1828L496 220M1064-560L856-280L648-560L424-560L424-544L748-128L964-128L1288-544L1288-560L1064-560Z"  horiz-adv-x="2024" vert-adv-y="2816"  />

      
      <glyph glyph-name="uni0189" unicode="&#x0189;" d="M880 0L388 0L388 220L864 220Q1118 220 1285 318Q1452 416 1534 597Q1616 778 1616 1028Q1616 1276 1535 1455.50Q1454 1635 1293 1731.50Q1132 1828 892 1828L376 1828L376 2048L908 2048Q1206 2048 1418 1925.50Q1630 1803 1743 1574.50Q1856 1346 1856 1028Q1856 708 1742 477.50Q1628 247 1410 123.50Q1192 0 880 0M496 2048L496 0L248 0L248 2048L496 2048M-68 964L-68 1148L812 1148L812 964L-68 964Z"  horiz-adv-x="2024" vert-adv-y="2816"  />

      
      <glyph glyph-name="uni01F2" unicode="&#x01F2;" d="M880 0L248 0L248 2048L908 2048Q1206 2048 1418 1925.50Q1630 1803 1743 1574.50Q1856 1346 1856 1028Q1856 708 1742 477.50Q1628 247 1410 123.50Q1192 0 880 0M496 220L864 220Q1118 220 1285 318Q1452 416 1534 597Q1616 778 1616 1028Q1616 1276 1535 1455.50Q1454 1635 1293 1731.50Q1132 1828 892 1828L496 1828L496 220M2196 0L2196 180L3068 1300L3068 1316L2224 1316L2224 1536L3372 1536L3372 1348L2524 236L2524 220L3400 220L3400 0L2196 0Z"  horiz-adv-x="3548" vert-adv-y="2816"  />

      
      <glyph glyph-name="uni01C5" unicode="&#x01C5;" d="M880 0L248 0L248 2048L908 2048Q1206 2048 1418 1925.50Q1630 1803 1743 1574.50Q1856 1346 1856 1028Q1856 708 1742 477.50Q1628 247 1410 123.50Q1192 0 880 0M496 220L864 220Q1118 220 1285 318Q1452 416 1534 597Q1616 778 1616 1028Q1616 1276 1535 1455.50Q1454 1635 1293 1731.50Q1132 1828 892 1828L496 1828L496 220M2196 0L2196 180L3068 1300L3068 1316L2224 1316L2224 1536L3372 1536L3372 1348L2524 236L2524 220L3400 220L3400 0L2196 0M2576 2152L2784 1872L2992 2152L3216 2152L3216 2136L2892 1720L2676 1720L2352 2136L2352 2152L2576 2152Z"  horiz-adv-x="3548" vert-adv-y="2816"  />

      
      <glyph glyph-name="uni45" unicode="&#x45;" d="M248 0L248 2048L1484 2048L1484 1828L496 1828L496 1136L1420 1136L1420 916L496 916L496 220L1500 220L1500 0L248 0Z"  horiz-adv-x="1684" vert-adv-y="2816"  />

      
      <glyph glyph-name="unic8" unicode="&#xc8;" d="M248 0L248 2048L1484 2048L1484 1828L496 1828L496 1136L1420 1136L1420 916L496 916L496 220L1500 220L1500 0L248 0M764 2256L452 2720L728 2720L972 2256L764 2256Z"  horiz-adv-x="1684" vert-adv-y="2816"  />

      
      <glyph glyph-name="unic9" unicode="&#xc9;" d="M248 0L248 2048L1484 2048L1484 1828L496 1828L496 1136L1420 1136L1420 916L496 916L496 220L1500 220L1500 0L248 0M756 2256L1000 2720L1276 2720L964 2256L756 2256Z"  horiz-adv-x="1684" vert-adv-y="2816"  />

      
      <glyph glyph-name="unica" unicode="&#xca;" d="M248 0L248 2048L1484 2048L1484 1828L496 1828L496 1136L1420 1136L1420 916L496 916L496 220L1500 220L1500 0L248 0M1072 2232L864 2512L656 2232L432 2232L432 2248L756 2664L972 2664L1296 2248L1296 2232L1072 2232Z"  horiz-adv-x="1684" vert-adv-y="2816"  />

      
      <glyph glyph-name="unicb" unicode="&#xcb;" d="M248 0L248 2048L1484 2048L1484 1828L496 1828L496 1136L1420 1136L1420 916L496 916L496 220L1500 220L1500 0L248 0M576 2304Q513 2304 464.50 2352.50Q416 2401 416 2464Q416 2533 464.50 2578.50Q513 2624 576 2624Q645 2624 690.50 2578.50Q736 2533 736 2464Q736 2401 690.50 2352.50Q645 2304 576 2304M1152 2304Q1089 2304 1040.50 2352.50Q992 2401 992 2464Q992 2533 1040.50 2578.50Q1089 2624 1152 2624Q1221 2624 1266.50 2578.50Q1312 2533 1312 2464Q1312 2401 1266.50 2352.50Q1221 2304 1152 2304Z"  horiz-adv-x="1684" vert-adv-y="2816"  />

      
      <glyph glyph-name="uni0112" unicode="&#x0112;" d="M248 0L248 2048L1484 2048L1484 1828L496 1828L496 1136L1420 1136L1420 916L496 916L496 220L1500 220L1500 0L248 0M1332 2560L1332 2360L396 2360L396 2560L1332 2560Z"  horiz-adv-x="1684" vert-adv-y="2816"  />

      
      <glyph glyph-name="uni0114" unicode="&#x0114;" d="M248 0L248 2048L1484 2048L1484 1828L496 1828L496 1136L1420 1136L1420 916L496 916L496 220L1500 220L1500 0L248 0M1060 2560L1280 2560Q1280 2398 1168 2295Q1056 2192 864 2192Q675 2192 563.50 2295Q452 2398 452 2560L672 2560Q672 2482 715.50 2423Q759 2364 864 2364Q969 2364 1014.50 2423Q1060 2482 1060 2560Z"  horiz-adv-x="1684" vert-adv-y="2816"  />

      
      <glyph glyph-name="uni0116" unicode="&#x0116;" d="M248 0L248 2048L1484 2048L1484 1828L496 1828L496 1136L1420 1136L1420 916L496 916L496 220L1500 220L1500 0L248 0M864 2304Q795 2304 745.50 2351Q696 2398 696 2464Q696 2530 745.50 2577Q795 2624 864 2624Q933 2624 982.50 2577Q1032 2530 1032 2464Q1032 2398 982.50 2351Q933 2304 864 2304Z"  horiz-adv-x="1684" vert-adv-y="2816"  />

      
      <glyph glyph-name="uni0118" unicode="&#x0118;" d="M248 0L248 2048L1484 2048L1484 1828L496 1828L496 1136L1420 1136L1420 916L496 916L496 220L1500 220L1500 0L248 0M1312-600Q1189-600 1108.50-532.50Q1028-465 1028-336Q1028-262 1064-188Q1100-114 1180-45Q1260 24 1392 84L1500 0Q1410-66 1339-140Q1268-214 1268-304Q1268-349 1290-374.50Q1312-400 1372-400Q1417-400 1452-388Q1487-376 1508-364L1524-540Q1491-561 1437.50-580.50Q1384-600 1312-600Z"  horiz-adv-x="1684" vert-adv-y="2816"  />

      
      <glyph glyph-name="uni011A" unicode="&#x011A;" d="M248 0L248 2048L1484 2048L1484 1828L496 1828L496 1136L1420 1136L1420 916L496 916L496 220L1500 220L1500 0L248 0M656 2664L864 2384L1072 2664L1296 2664L1296 2648L972 2232L756 2232L432 2648L432 2664L656 2664Z"  horiz-adv-x="1684" vert-adv-y="2816"  />

      
      <glyph glyph-name="uni0204" unicode="&#x0204;" d="M248 0L248 2048L1484 2048L1484 1828L496 1828L496 1136L1420 1136L1420 916L496 916L496 220L1500 220L1500 0L248 0M554 2256L224 2720L518 2720L762 2256L554 2256M978 2256L734 2720L1034 2720L1184 2256L978 2256Z"  horiz-adv-x="1684" vert-adv-y="2816"  />

      
      <glyph glyph-name="uni0206" unicode="&#x0206;" d="M248 0L248 2048L1484 2048L1484 1828L496 1828L496 1136L1420 1136L1420 916L496 916L496 220L1500 220L1500 0L248 0M448 2304Q448 2466 560 2571Q672 2676 864 2676Q1056 2676 1166 2571Q1276 2466 1276 2304L1056 2304Q1056 2385 1011 2444.50Q966 2504 864 2504Q756 2504 712 2443Q668 2382 668 2304L448 2304Z"  horiz-adv-x="1684" vert-adv-y="2816"  />

      
      <glyph glyph-name="uni0228" unicode="&#x0228;" d="M248 0L248 2048L1484 2048L1484 1828L496 1828L496 1136L1420 1136L1420 916L496 916L496 220L1500 220L1500 0L248 0M744 8L940 8L924-72Q1002-84 1067-137.50Q1132-191 1132-308Q1132-437 1025.50-518.50Q919-600 712-600L704-444Q797-444 858.50-414.50Q920-385 920-316Q920-247 869-222Q818-197 704-188L744 8Z"  horiz-adv-x="1684" vert-adv-y="2816"  />

      
      <glyph glyph-name="uni1E14" unicode="&#x1E14;" d="M248 0L248 2048L1484 2048L1484 1828L496 1828L496 1136L1420 1136L1420 916L496 916L496 220L1500 220L1500 0L248 0M762 2640L422 2944L706 2944L1006 2640L762 2640M1332 2504L1332 2304L396 2304L396 2504L1332 2504Z"  horiz-adv-x="1684" vert-adv-y="2816"  />

      
      <glyph glyph-name="uni1E16" unicode="&#x1E16;" d="M248 0L248 2048L1484 2048L1484 1828L496 1828L496 1136L1420 1136L1420 916L496 916L496 220L1500 220L1500 0L248 0M724 2640L1024 2944L1308 2944L968 2640L724 2640M1332 2504L1332 2304L396 2304L396 2504L1332 2504Z"  horiz-adv-x="1684" vert-adv-y="2816"  />

      
      <glyph glyph-name="uni1E18" unicode="&#x1E18;" d="M248 0L248 2048L1484 2048L1484 1828L496 1828L496 1136L1420 1136L1420 916L496 916L496 220L1500 220L1500 0L248 0M1052-560L844-280L636-560L412-560L412-544L736-128L952-128L1276-544L1276-560L1052-560Z"  horiz-adv-x="1684" vert-adv-y="2816"  />

      
      <glyph glyph-name="uni1E1A" unicode="&#x1E1A;" d="M248 0L248 2048L1484 2048L1484 1828L496 1828L496 1136L1420 1136L1420 916L496 916L496 220L1500 220L1500 0L248 0M616-508L432-500Q432-347 519.50-249.50Q607-152 736-152Q793-152 837-171.50Q881-191 921-216Q961-241 1003.50-260.50Q1046-280 1100-280Q1157-280 1196.50-235.50Q1236-191 1236-128L1416-144Q1416-300 1328.50-392Q1241-484 1112-484Q1043-484 998-464.50Q953-445 918-420Q883-395 844-375.50Q805-356 748-356Q691-356 653.50-400.50Q616-445 616-508Z"  horiz-adv-x="1684" vert-adv-y="2816"  />

      
      <glyph glyph-name="uni1E1C" unicode="&#x1E1C;" d="M248 0L248 2048L1484 2048L1484 1828L496 1828L496 1136L1420 1136L1420 916L496 916L496 220L1500 220L1500 0L248 0M744 8L940 8L924-72Q1002-84 1067-137.50Q1132-191 1132-308Q1132-437 1025.50-518.50Q919-600 712-600L704-444Q797-444 858.50-414.50Q920-385 920-316Q920-247 869-222Q818-197 704-188L744 8M1060 2560L1280 2560Q1280 2398 1168 2295Q1056 2192 864 2192Q675 2192 563.50 2295Q452 2398 452 2560L672 2560Q672 2482 715.50 2423Q759 2364 864 2364Q969 2364 1014.50 2423Q1060 2482 1060 2560Z"  horiz-adv-x="1684" vert-adv-y="2816"  />

      
      <glyph glyph-name="uni1EB8" unicode="&#x1EB8;" d="M248 0L248 2048L1484 2048L1484 1828L496 1828L496 1136L1420 1136L1420 916L496 916L496 220L1500 220L1500 0L248 0M844-508Q775-508 725.50-461Q676-414 676-348Q676-282 725.50-235Q775-188 844-188Q913-188 962.50-235Q1012-282 1012-348Q1012-414 962.50-461Q913-508 844-508Z"  horiz-adv-x="1684" vert-adv-y="2816"  />

      
      <glyph glyph-name="uni1EBA" unicode="&#x1EBA;" d="M248 0L248 2048L1484 2048L1484 1828L496 1828L496 1136L1420 1136L1420 916L496 916L496 220L1500 220L1500 0L248 0M968 2256L772 2256L772 2472Q877 2478 920.50 2501Q964 2524 964 2572Q964 2626 901 2651Q838 2676 748 2676L756 2828Q963 2828 1069.50 2756Q1176 2684 1176 2564Q1176 2462 1111 2415Q1046 2368 968 2356L968 2256Z"  horiz-adv-x="1684" vert-adv-y="2816"  />

      
      <glyph glyph-name="uni1EBC" unicode="&#x1EBC;" d="M248 0L248 2048L1484 2048L1484 1828L496 1828L496 1136L1420 1136L1420 916L496 916L496 220L1500 220L1500 0L248 0M556 2232L372 2240Q372 2393 459.50 2490.50Q547 2588 676 2588Q733 2588 777 2568.50Q821 2549 861 2524Q901 2499 943.50 2479.50Q986 2460 1040 2460Q1097 2460 1136.50 2504.50Q1176 2549 1176 2612L1356 2596Q1356 2440 1268.50 2348Q1181 2256 1052 2256Q983 2256 938 2275.50Q893 2295 858 2320Q823 2345 784 2364.50Q745 2384 688 2384Q631 2384 593.50 2339.50Q556 2295 556 2232Z"  horiz-adv-x="1684" vert-adv-y="2816"  />

      
      <glyph glyph-name="uni1EBE" unicode="&#x1EBE;" d="M248 0L248 2048L1484 2048L1484 1828L496 1828L496 1136L1420 1136L1420 916L496 916L496 220L1500 220L1500 0L248 0M348 2240L756 2604L976 2604L1384 2240L1096 2240L868 2452L640 2240L348 2240M1276 2484L1472 2844L1764 2844L1484 2484L1276 2484Z"  horiz-adv-x="1684" vert-adv-y="2816"  />

      
      <glyph glyph-name="uni1EC0" unicode="&#x1EC0;" d="M248 0L248 2048L1484 2048L1484 1828L496 1828L496 1136L1420 1136L1420 916L496 916L496 220L1500 220L1500 0L248 0M972 2600L1380 2236L1092 2236L864 2448L636 2236L348 2236L752 2600L972 2600M260 2844L452 2480L248 2480L-36 2844L260 2844Z"  horiz-adv-x="1684" vert-adv-y="2816"  />

      
      <glyph glyph-name="uni1EC2" unicode="&#x1EC2;" d="M248 0L248 2048L1484 2048L1484 1828L496 1828L496 1136L1420 1136L1420 916L496 916L496 220L1500 220L1500 0L248 0M1000 2576L1380 2212L1132 2212L860 2464L592 2212L344 2212L724 2576L1000 2576M1420 2404L1252 2404L1252 2588Q1336 2594 1376 2610.50Q1416 2627 1416 2672Q1416 2720 1362.50 2740Q1309 2760 1228 2760L1236 2892Q1416 2892 1508 2831Q1600 2770 1600 2668Q1600 2578 1544.50 2537.50Q1489 2497 1420 2488L1420 2404Z"  horiz-adv-x="1684" vert-adv-y="2816"  />

      
      <glyph glyph-name="uni1EC4" unicode="&#x1EC4;" d="M248 0L248 2048L1484 2048L1484 1828L496 1828L496 1136L1420 1136L1420 916L496 916L496 220L1500 220L1500 0L248 0M956 2520L1376 2184L1128 2184L860 2396L592 2184L344 2184L764 2520L956 2520M1108 2872L1220 2840Q1220 2759 1154 2691.50Q1088 2624 992 2624Q941 2624 906 2638.50Q871 2653 843.50 2672Q816 2691 786.50 2705.50Q757 2720 716 2720Q674 2720 637 2688Q600 2656 600 2620L492 2648Q492 2729 556 2798.50Q620 2868 716 2868Q758 2868 792 2854Q826 2840 857 2822Q888 2804 920.50 2790Q953 2776 992 2776Q1034 2776 1071 2806Q1108 2836 1108 2872Z"  horiz-adv-x="1684" vert-adv-y="2816"  />

      
      <glyph glyph-name="uni1EC6" unicode="&#x1EC6;" d="M248 0L248 2048L1484 2048L1484 1828L496 1828L496 1136L1420 1136L1420 916L496 916L496 220L1500 220L1500 0L248 0M1072 2232L864 2512L656 2232L432 2232L432 2248L756 2664L972 2664L1296 2248L1296 2232L1072 2232M844-508Q775-508 725.50-461Q676-414 676-348Q676-282 725.50-235Q775-188 844-188Q913-188 962.50-235Q1012-282 1012-348Q1012-414 962.50-461Q913-508 844-508Z"  horiz-adv-x="1684" vert-adv-y="2816"  />

      
      <glyph glyph-name="uni0246" unicode="&#x0246;" d="M1412 2308L672-260L444-260L1184 2308L1412 2308M248 0L248 2048L1484 2048L1484 1828L496 1828L496 1136L1420 1136L1420 916L496 916L496 220L1500 220L1500 0L248 0Z"  horiz-adv-x="1684" vert-adv-y="2816"  />

      
      <glyph glyph-name="uni018E" unicode="&#x018E;" d="M1436 2048L1436 0L200 0L200 220L1188 220L1188 912L264 912L264 1132L1188 1132L1188 1828L184 1828L184 2048L1436 2048Z"  horiz-adv-x="1684" vert-adv-y="2816"  />

      
      <glyph glyph-name="uni0395" unicode="&#x0395;" d="M248 0L248 2048L1484 2048L1484 1828L496 1828L496 1136L1420 1136L1420 916L496 916L496 220L1500 220L1500 0L248 0Z"  horiz-adv-x="1684" vert-adv-y="2816"  />

      
      <glyph glyph-name="uni0388" unicode="&#x0388;" d="M508 0L508 2048L1744 2048L1744 1828L756 1828L756 1136L1680 1136L1680 916L756 916L756 220L1760 220L1760 0L508 0M100 1708L168 2176L424 2176L264 1708L100 1708Z"  horiz-adv-x="1944" vert-adv-y="2816"  />

      
      <glyph glyph-name="uni1F18" unicode="&#x1F18;" d="M604 0L604 2048L1840 2048L1840 1828L852 1828L852 1136L1776 1136L1776 916L852 916L852 220L1856 220L1856 0L604 0M460 2048L460 1936Q460 1856 431 1785Q402 1714 346 1655Q290 1596 208 1552L100 1636Q138 1678 163 1724Q188 1770 200 1824Q212 1878 212 1944L212 2048L460 2048Z"  horiz-adv-x="2040" vert-adv-y="2816"  />

      
      <glyph glyph-name="uni1F19" unicode="&#x1F19;" d="M584 0L584 2048L1820 2048L1820 1828L832 1828L832 1136L1756 1136L1756 916L832 916L832 220L1836 220L1836 0L584 0M100 1936L100 2048L348 2048L348 1944Q348 1878 360 1824Q372 1770 397 1724Q422 1678 460 1636L352 1552Q232 1618 166 1717Q100 1816 100 1936Z"  horiz-adv-x="2020" vert-adv-y="2816"  />

      
      <glyph glyph-name="uni1F1A" unicode="&#x1F1A;" d="M1156 0L1156 2048L2392 2048L2392 1828L1404 1828L1404 1136L2328 1136L2328 916L1404 916L1404 220L2408 220L2408 0L1156 0M968 1612L968 1592L840 1592L524 2028L524 2056L812 2056L968 1612M460 2056L460 1944Q460 1864 430.50 1793Q401 1722 344.50 1663Q288 1604 208 1560L100 1644Q154 1707 183 1780Q212 1853 212 1952L212 2056L460 2056Z"  horiz-adv-x="2592" vert-adv-y="2816"  />

      
      <glyph glyph-name="uni1F1B" unicode="&#x1F1B;" d="M1052 0L1052 2048L2288 2048L2288 1828L1300 1828L1300 1136L2224 1136L2224 916L1300 916L1300 220L2304 220L2304 0L1052 0M884 1604L884 1584L756 1584L440 2020L440 2048L732 2048L884 1604M100 1936L100 2048L348 2048L348 1944Q348 1845 375.50 1772Q403 1699 460 1636L352 1552Q232 1618 166 1717Q100 1816 100 1936Z"  horiz-adv-x="2488" vert-adv-y="2816"  />

      
      <glyph glyph-name="uni1F1C" unicode="&#x1F1C;" d="M1032 0L1032 2048L2268 2048L2268 1828L1280 1828L1280 1136L2204 1136L2204 916L1280 916L1280 220L2284 220L2284 0L1032 0M480 1584L480 1604L636 2048L924 2048L924 2020L608 1584L480 1584M460 2048L460 1936Q460 1856 430.50 1785Q401 1714 344.50 1655Q288 1596 208 1552L100 1636Q154 1699 183 1772Q212 1845 212 1944L212 2048L460 2048Z"  horiz-adv-x="2468" vert-adv-y="2816"  />

      
      <glyph glyph-name="uni1F1D" unicode="&#x1F1D;" d="M1080 0L1080 2048L2316 2048L2316 1828L1328 1828L1328 1136L2252 1136L2252 916L1328 916L1328 220L2332 220L2332 0L1080 0M512 1584L512 1604L664 2048L956 2048L956 2020L640 1584L512 1584M352 1552Q232 1618 166 1717Q100 1816 100 1936L100 2048L348 2048L348 1944Q348 1845 377 1772Q406 1699 460 1636L352 1552Z"  horiz-adv-x="2516" vert-adv-y="2816"  />

      
      <glyph glyph-name="uni1FC8" unicode="&#x1FC8;" d="M728 0L728 2048L1964 2048L1964 1828L976 1828L976 1136L1900 1136L1900 916L976 916L976 220L1980 220L1980 0L728 0M416 1580L100 2020L100 2048L388 2048L544 1604L544 1580L416 1580Z"  horiz-adv-x="2164" vert-adv-y="2816"  />

      
      <glyph glyph-name="uni1FC9" unicode="&#x1FC9;" d="M648 0L648 2048L1884 2048L1884 1828L896 1828L896 1136L1820 1136L1820 916L896 916L896 220L1900 220L1900 0L648 0M244 1728L244 1752L396 2196L688 2196L688 2168L372 1728L244 1728Z"  horiz-adv-x="2084" vert-adv-y="2816"  />

      
      <glyph glyph-name="uni0415" unicode="&#x0415;" d="M248 0L248 2048L1484 2048L1484 1828L496 1828L496 1136L1420 1136L1420 916L496 916L496 220L1500 220L1500 0L248 0Z"  horiz-adv-x="1684" vert-adv-y="2816"  />

      
      <glyph glyph-name="uni0400" unicode="&#x0400;" d="M248 0L248 2048L1484 2048L1484 1828L496 1828L496 1136L1420 1136L1420 916L496 916L496 220L1500 220L1500 0L248 0M764 2256L452 2720L728 2720L972 2256L764 2256Z"  horiz-adv-x="1684" vert-adv-y="2816"  />

      
      <glyph glyph-name="uni0401" unicode="&#x0401;" d="M248 0L248 2048L1484 2048L1484 1828L496 1828L496 1136L1420 1136L1420 916L496 916L496 220L1500 220L1500 0L248 0M576 2304Q513 2304 464.50 2352.50Q416 2401 416 2464Q416 2533 464.50 2578.50Q513 2624 576 2624Q645 2624 690.50 2578.50Q736 2533 736 2464Q736 2401 690.50 2352.50Q645 2304 576 2304M1152 2304Q1089 2304 1040.50 2352.50Q992 2401 992 2464Q992 2533 1040.50 2578.50Q1089 2624 1152 2624Q1221 2624 1266.50 2578.50Q1312 2533 1312 2464Q1312 2401 1266.50 2352.50Q1221 2304 1152 2304Z"  horiz-adv-x="1684" vert-adv-y="2816"  />

      
      <glyph glyph-name="uni04D6" unicode="&#x04D6;" d="M248 0L248 2048L1484 2048L1484 1828L496 1828L496 1136L1420 1136L1420 916L496 916L496 220L1500 220L1500 0L248 0M1060 2560L1280 2560Q1280 2398 1168 2295Q1056 2192 864 2192Q675 2192 563.50 2295Q452 2398 452 2560L672 2560Q672 2482 715.50 2423Q759 2364 864 2364Q969 2364 1014.50 2423Q1060 2482 1060 2560Z"  horiz-adv-x="1684" vert-adv-y="2816"  />

      
      <glyph glyph-name="uni46" unicode="&#x46;" d="M248 0L248 2048L1476 2048L1476 1828L496 1828L496 1136L1384 1136L1384 916L496 916L496 0L248 0Z"  horiz-adv-x="1652" vert-adv-y="2816"  />

      
      <glyph glyph-name="uni0191" unicode="&#x0191;" d="M248 0L496 0L496-164Q496-263 466-339.50Q436-416 377.50-469Q319-522 231.50-549Q144-576 28-576Q16-576 6.50-574.50Q-3-573-48-564L-48-360Q-33-363-13-365.50Q7-368 28-368Q124-368 186-324Q248-280 248-160L248 0M248 0L248 2048L1476 2048L1476 1828L496 1828L496 1136L1384 1136L1384 916L496 916L496 0L248 0Z"  horiz-adv-x="1652" vert-adv-y="2816"  />

      
      <glyph glyph-name="uni1E1E" unicode="&#x1E1E;" d="M248 0L248 2048L1476 2048L1476 1828L496 1828L496 1136L1384 1136L1384 916L496 916L496 0L248 0M888 2304Q819 2304 769.50 2351Q720 2398 720 2464Q720 2530 769.50 2577Q819 2624 888 2624Q957 2624 1006.50 2577Q1056 2530 1056 2464Q1056 2398 1006.50 2351Q957 2304 888 2304Z"  horiz-adv-x="1652" vert-adv-y="2816"  />

      
      <glyph glyph-name="uni2132" unicode="&#x2132;" d="M1404 2048L1404 0L176 0L176 220L1156 220L1156 912L268 912L268 1132L1156 1132L1156 2048L1404 2048Z"  horiz-adv-x="1652" vert-adv-y="2816"  />

      
      <glyph glyph-name="uni47" unicode="&#x47;" d="M1648 1408Q1615 1509 1561.50 1589.50Q1508 1670 1434.50 1727Q1361 1784 1268 1814Q1175 1844 1064 1844Q882 1844 733 1750Q584 1656 496 1473Q408 1290 408 1024Q408 758 497 575Q586 392 738 298Q890 204 1080 204Q1256 204 1390.50 279.50Q1525 355 1600.50 493.50Q1676 632 1676 820L1752 804L1136 804L1136 1024L1916 1024L1916 804Q1916 551 1808.50 364Q1701 177 1512.50 74.50Q1324-28 1080-28Q808-28 602.50 100Q397 228 282.50 464Q168 700 168 1024Q168 1267 233.50 1461.50Q299 1656 419 1793Q539 1930 703 2003Q867 2076 1064 2076Q1226 2076 1366.50 2027.50Q1507 1979 1617.50 1890.50Q1728 1802 1802 1679.50Q1876 1557 1904 1408L1648 1408Z"  horiz-adv-x="2092" vert-adv-y="2816"  />

      
      <glyph glyph-name="uni01E4" unicode="&#x01E4;" d="M2056 624L2056 424L1136 424L1136 624L2056 624M1648 1408Q1615 1509 1561.50 1589.50Q1508 1670 1434.50 1727Q1361 1784 1268 1814Q1175 1844 1064 1844Q882 1844 733 1750Q584 1656 496 1473Q408 1290 408 1024Q408 758 497 575Q586 392 738 298Q890 204 1080 204Q1256 204 1390.50 279.50Q1525 355 1600.50 493.50Q1676 632 1676 820L1752 804L1136 804L1136 1024L1916 1024L1916 804Q1916 551 1808.50 364Q1701 177 1512.50 74.50Q1324-28 1080-28Q808-28 602.50 100Q397 228 282.50 464Q168 700 168 1024Q168 1267 233.50 1461.50Q299 1656 419 1793Q539 1930 703 2003Q867 2076 1064 2076Q1226 2076 1366.50 2027.50Q1507 1979 1617.50 1890.50Q1728 1802 1802 1679.50Q1876 1557 1904 1408L1648 1408Z"  horiz-adv-x="2092" vert-adv-y="2816"  />

      
      <glyph glyph-name="uni0193" unicode="&#x0193;" d="M1900 1408L1648 1408L1660 1624Q1666 1723 1694 1799.50Q1722 1876 1772 1929Q1822 1982 1895 2009Q1968 2036 2064 2036Q2100 2036 2136.50 2034.50Q2173 2033 2200 2024L2200 1824Q2185 1827 2165 1829.50Q2145 1832 2124 1832Q2060 1832 2009.50 1813.50Q1959 1795 1929.50 1749.50Q1900 1704 1900 1624L1900 1408M1648 1408Q1615 1509 1561.50 1589.50Q1508 1670 1434.50 1727Q1361 1784 1268 1814Q1175 1844 1064 1844Q882 1844 733 1750Q584 1656 496 1473Q408 1290 408 1024Q408 758 497 575Q586 392 738 298Q890 204 1080 204Q1256 204 1390.50 279.50Q1525 355 1600.50 493.50Q1676 632 1676 820L1752 804L1136 804L1136 1024L1916 1024L1916 804Q1916 551 1808.50 364Q1701 177 1512.50 74.50Q1324-28 1080-28Q808-28 602.50 100Q397 228 282.50 464Q168 700 168 1024Q168 1267 233.50 1461.50Q299 1656 419 1793Q539 1930 703 2003Q867 2076 1064 2076Q1226 2076 1366.50 2027.50Q1507 1979 1617.50 1890.50Q1728 1802 1802 1679.50Q1876 1557 1904 1408L1648 1408Z"  horiz-adv-x="2176" vert-adv-y="2816"  />

      
      <glyph glyph-name="uni011C" unicode="&#x011C;" d="M1648 1408Q1615 1509 1561.50 1589.50Q1508 1670 1434.50 1727Q1361 1784 1268 1814Q1175 1844 1064 1844Q882 1844 733 1750Q584 1656 496 1473Q408 1290 408 1024Q408 758 497 575Q586 392 738 298Q890 204 1080 204Q1256 204 1390.50 279.50Q1525 355 1600.50 493.50Q1676 632 1676 820L1752 804L1136 804L1136 1024L1916 1024L1916 804Q1916 551 1808.50 364Q1701 177 1512.50 74.50Q1324-28 1080-28Q808-28 602.50 100Q397 228 282.50 464Q168 700 168 1024Q168 1267 233.50 1461.50Q299 1656 419 1793Q539 1930 703 2003Q867 2076 1064 2076Q1226 2076 1366.50 2027.50Q1507 1979 1617.50 1890.50Q1728 1802 1802 1679.50Q1876 1557 1904 1408L1648 1408M1272 2232L1064 2512L856 2232L632 2232L632 2248L956 2664L1172 2664L1496 2248L1496 2232L1272 2232Z"  horiz-adv-x="2092" vert-adv-y="2816"  />

      
      <glyph glyph-name="uni011E" unicode="&#x011E;" d="M1648 1408Q1615 1509 1561.50 1589.50Q1508 1670 1434.50 1727Q1361 1784 1268 1814Q1175 1844 1064 1844Q882 1844 733 1750Q584 1656 496 1473Q408 1290 408 1024Q408 758 497 575Q586 392 738 298Q890 204 1080 204Q1256 204 1390.50 279.50Q1525 355 1600.50 493.50Q1676 632 1676 820L1752 804L1136 804L1136 1024L1916 1024L1916 804Q1916 551 1808.50 364Q1701 177 1512.50 74.50Q1324-28 1080-28Q808-28 602.50 100Q397 228 282.50 464Q168 700 168 1024Q168 1267 233.50 1461.50Q299 1656 419 1793Q539 1930 703 2003Q867 2076 1064 2076Q1226 2076 1366.50 2027.50Q1507 1979 1617.50 1890.50Q1728 1802 1802 1679.50Q1876 1557 1904 1408L1648 1408M1260 2560L1480 2560Q1480 2398 1368 2295Q1256 2192 1064 2192Q875 2192 763.50 2295Q652 2398 652 2560L872 2560Q872 2482 915.50 2423Q959 2364 1064 2364Q1169 2364 1214.50 2423Q1260 2482 1260 2560Z"  horiz-adv-x="2092" vert-adv-y="2816"  />

      
      <glyph glyph-name="uni0120" unicode="&#x0120;" d="M1648 1408Q1615 1509 1561.50 1589.50Q1508 1670 1434.50 1727Q1361 1784 1268 1814Q1175 1844 1064 1844Q882 1844 733 1750Q584 1656 496 1473Q408 1290 408 1024Q408 758 497 575Q586 392 738 298Q890 204 1080 204Q1256 204 1390.50 279.50Q1525 355 1600.50 493.50Q1676 632 1676 820L1752 804L1136 804L1136 1024L1916 1024L1916 804Q1916 551 1808.50 364Q1701 177 1512.50 74.50Q1324-28 1080-28Q808-28 602.50 100Q397 228 282.50 464Q168 700 168 1024Q168 1267 233.50 1461.50Q299 1656 419 1793Q539 1930 703 2003Q867 2076 1064 2076Q1226 2076 1366.50 2027.50Q1507 1979 1617.50 1890.50Q1728 1802 1802 1679.50Q1876 1557 1904 1408L1648 1408M1064 2304Q995 2304 945.50 2351Q896 2398 896 2464Q896 2530 945.50 2577Q995 2624 1064 2624Q1133 2624 1182.50 2577Q1232 2530 1232 2464Q1232 2398 1182.50 2351Q1133 2304 1064 2304Z"  horiz-adv-x="2092" vert-adv-y="2816"  />

      
      <glyph glyph-name="uni0122" unicode="&#x0122;" d="M1648 1408Q1615 1509 1561.50 1589.50Q1508 1670 1434.50 1727Q1361 1784 1268 1814Q1175 1844 1064 1844Q882 1844 733 1750Q584 1656 496 1473Q408 1290 408 1024Q408 758 497 575Q586 392 738 298Q890 204 1080 204Q1256 204 1390.50 279.50Q1525 355 1600.50 493.50Q1676 632 1676 820L1752 804L1136 804L1136 1024L1916 1024L1916 804Q1916 551 1808.50 364Q1701 177 1512.50 74.50Q1324-28 1080-28Q808-28 602.50 100Q397 228 282.50 464Q168 700 168 1024Q168 1267 233.50 1461.50Q299 1656 419 1793Q539 1930 703 2003Q867 2076 1064 2076Q1226 2076 1366.50 2027.50Q1507 1979 1617.50 1890.50Q1728 1802 1802 1679.50Q1876 1557 1904 1408L1648 1408M826-680L938-162L1180-162L1010-680L826-680Z"  horiz-adv-x="2092" vert-adv-y="2816"  />

      
      <glyph glyph-name="uni01E6" unicode="&#x01E6;" d="M1648 1408Q1615 1509 1561.50 1589.50Q1508 1670 1434.50 1727Q1361 1784 1268 1814Q1175 1844 1064 1844Q882 1844 733 1750Q584 1656 496 1473Q408 1290 408 1024Q408 758 497 575Q586 392 738 298Q890 204 1080 204Q1256 204 1390.50 279.50Q1525 355 1600.50 493.50Q1676 632 1676 820L1752 804L1136 804L1136 1024L1916 1024L1916 804Q1916 551 1808.50 364Q1701 177 1512.50 74.50Q1324-28 1080-28Q808-28 602.50 100Q397 228 282.50 464Q168 700 168 1024Q168 1267 233.50 1461.50Q299 1656 419 1793Q539 1930 703 2003Q867 2076 1064 2076Q1226 2076 1366.50 2027.50Q1507 1979 1617.50 1890.50Q1728 1802 1802 1679.50Q1876 1557 1904 1408L1648 1408M856 2664L1064 2384L1272 2664L1496 2664L1496 2648L1172 2232L956 2232L632 2648L632 2664L856 2664Z"  horiz-adv-x="2092" vert-adv-y="2816"  />

      
      <glyph glyph-name="uni01F4" unicode="&#x01F4;" d="M1648 1408Q1615 1509 1561.50 1589.50Q1508 1670 1434.50 1727Q1361 1784 1268 1814Q1175 1844 1064 1844Q882 1844 733 1750Q584 1656 496 1473Q408 1290 408 1024Q408 758 497 575Q586 392 738 298Q890 204 1080 204Q1256 204 1390.50 279.50Q1525 355 1600.50 493.50Q1676 632 1676 820L1752 804L1136 804L1136 1024L1916 1024L1916 804Q1916 551 1808.50 364Q1701 177 1512.50 74.50Q1324-28 1080-28Q808-28 602.50 100Q397 228 282.50 464Q168 700 168 1024Q168 1267 233.50 1461.50Q299 1656 419 1793Q539 1930 703 2003Q867 2076 1064 2076Q1226 2076 1366.50 2027.50Q1507 1979 1617.50 1890.50Q1728 1802 1802 1679.50Q1876 1557 1904 1408L1648 1408M956 2256L1200 2720L1476 2720L1164 2256L956 2256Z"  horiz-adv-x="2092" vert-adv-y="2816"  />

      
      <glyph glyph-name="uni1E20" unicode="&#x1E20;" d="M1648 1408Q1615 1509 1561.50 1589.50Q1508 1670 1434.50 1727Q1361 1784 1268 1814Q1175 1844 1064 1844Q882 1844 733 1750Q584 1656 496 1473Q408 1290 408 1024Q408 758 497 575Q586 392 738 298Q890 204 1080 204Q1256 204 1390.50 279.50Q1525 355 1600.50 493.50Q1676 632 1676 820L1752 804L1136 804L1136 1024L1916 1024L1916 804Q1916 551 1808.50 364Q1701 177 1512.50 74.50Q1324-28 1080-28Q808-28 602.50 100Q397 228 282.50 464Q168 700 168 1024Q168 1267 233.50 1461.50Q299 1656 419 1793Q539 1930 703 2003Q867 2076 1064 2076Q1226 2076 1366.50 2027.50Q1507 1979 1617.50 1890.50Q1728 1802 1802 1679.50Q1876 1557 1904 1408L1648 1408M1532 2560L1532 2360L596 2360L596 2560L1532 2560Z"  horiz-adv-x="2092" vert-adv-y="2816"  />

      
      <glyph glyph-name="uniE002" unicode="&#xE002;" d="M1080-28Q808-28 602.50 100Q397 228 282.50 464Q168 700 168 1024Q168 1267 235 1461.50Q302 1656 423.50 1793Q545 1930 710.50 2003Q876 2076 1072 2076Q1234 2076 1376 2027.50Q1518 1979 1631.50 1890.50Q1745 1802 1820.50 1679.50Q1896 1557 1924 1408L1668 1408Q1637 1509 1582 1589.50Q1527 1670 1450 1727Q1373 1784 1278 1814Q1183 1844 1072 1844Q890 1844 739 1750Q588 1656 498 1473Q408 1290 408 1024Q408 758 497 575Q586 392 738 298Q890 204 1080 204Q1263 204 1401.50 284.50Q1540 365 1618 506.50Q1696 648 1696 830L1728 804L1136 804L1136 1024L1936 1024L1936 0L1728 0L1698 250L1688 250Q1571 116 1427 44Q1283-28 1080-28Z"  horiz-adv-x="2112" vert-adv-y="2816"  />

      
      <glyph glyph-name="uniE003" unicode="&#xE003;" d="M2076 624L2076 424L1136 424L1136 624L2076 624M1080-28Q808-28 602.50 100Q397 228 282.50 464Q168 700 168 1024Q168 1267 235 1461.50Q302 1656 423.50 1793Q545 1930 710.50 2003Q876 2076 1072 2076Q1234 2076 1376 2027.50Q1518 1979 1631.50 1890.50Q1745 1802 1820.50 1679.50Q1896 1557 1924 1408L1668 1408Q1637 1509 1582 1589.50Q1527 1670 1450 1727Q1373 1784 1278 1814Q1183 1844 1072 1844Q890 1844 739 1750Q588 1656 498 1473Q408 1290 408 1024Q408 758 497 575Q586 392 738 298Q890 204 1080 204Q1263 204 1401.50 284.50Q1540 365 1618 506.50Q1696 648 1696 830L1728 804L1136 804L1136 1024L1936 1024L1936 0L1728 0L1698 250L1688 250Q1571 116 1427 44Q1283-28 1080-28Z"  horiz-adv-x="2112" vert-adv-y="2816"  />

      
      <glyph glyph-name="uniE004" unicode="&#xE004;" d="M1924 1408L1672 1408L1684 1624Q1690 1723 1717.50 1799.50Q1745 1876 1795.50 1929Q1846 1982 1919 2009Q1992 2036 2088 2036Q2124 2036 2160.50 2034.50Q2197 2033 2224 2024L2224 1824Q2209 1827 2189 1829.50Q2169 1832 2148 1832Q2084 1832 2033.50 1813.50Q1983 1795 1953.50 1749.50Q1924 1704 1924 1624L1924 1408M1080-28Q808-28 602.50 100Q397 228 282.50 464Q168 700 168 1024Q168 1267 235 1461.50Q302 1656 423.50 1793Q545 1930 710.50 2003Q876 2076 1072 2076Q1234 2076 1376 2027.50Q1518 1979 1631.50 1890.50Q1745 1802 1820.50 1679.50Q1896 1557 1924 1408L1668 1408Q1637 1509 1582 1589.50Q1527 1670 1450 1727Q1373 1784 1278 1814Q1183 1844 1072 1844Q890 1844 739 1750Q588 1656 498 1473Q408 1290 408 1024Q408 758 497 575Q586 392 738 298Q890 204 1080 204Q1263 204 1401.50 284.50Q1540 365 1618 506.50Q1696 648 1696 830L1728 804L1136 804L1136 1024L1936 1024L1936 0L1728 0L1698 250L1688 250Q1571 116 1427 44Q1283-28 1080-28Z"  horiz-adv-x="2176" vert-adv-y="2816"  />

      
      <glyph glyph-name="uniE005" unicode="&#xE005;" d="M1080-28Q808-28 602.50 100Q397 228 282.50 464Q168 700 168 1024Q168 1267 235 1461.50Q302 1656 423.50 1793Q545 1930 710.50 2003Q876 2076 1072 2076Q1234 2076 1376 2027.50Q1518 1979 1631.50 1890.50Q1745 1802 1820.50 1679.50Q1896 1557 1924 1408L1668 1408Q1637 1509 1582 1589.50Q1527 1670 1450 1727Q1373 1784 1278 1814Q1183 1844 1072 1844Q890 1844 739 1750Q588 1656 498 1473Q408 1290 408 1024Q408 758 497 575Q586 392 738 298Q890 204 1080 204Q1263 204 1401.50 284.50Q1540 365 1618 506.50Q1696 648 1696 830L1728 804L1136 804L1136 1024L1936 1024L1936 0L1728 0L1698 250L1688 250Q1571 116 1427 44Q1283-28 1080-28M1272 2232L1064 2512L856 2232L632 2232L632 2248L956 2664L1172 2664L1496 2248L1496 2232L1272 2232Z"  horiz-adv-x="2112" vert-adv-y="2816"  />

      
      <glyph glyph-name="uniE006" unicode="&#xE006;" d="M1080-28Q808-28 602.50 100Q397 228 282.50 464Q168 700 168 1024Q168 1267 235 1461.50Q302 1656 423.50 1793Q545 1930 710.50 2003Q876 2076 1072 2076Q1234 2076 1376 2027.50Q1518 1979 1631.50 1890.50Q1745 1802 1820.50 1679.50Q1896 1557 1924 1408L1668 1408Q1637 1509 1582 1589.50Q1527 1670 1450 1727Q1373 1784 1278 1814Q1183 1844 1072 1844Q890 1844 739 1750Q588 1656 498 1473Q408 1290 408 1024Q408 758 497 575Q586 392 738 298Q890 204 1080 204Q1263 204 1401.50 284.50Q1540 365 1618 506.50Q1696 648 1696 830L1728 804L1136 804L1136 1024L1936 1024L1936 0L1728 0L1698 250L1688 250Q1571 116 1427 44Q1283-28 1080-28M1260 2560L1480 2560Q1480 2398 1368 2295Q1256 2192 1064 2192Q875 2192 763.50 2295Q652 2398 652 2560L872 2560Q872 2482 915.50 2423Q959 2364 1064 2364Q1169 2364 1214.50 2423Q1260 2482 1260 2560Z"  horiz-adv-x="2112" vert-adv-y="2816"  />

      
      <glyph glyph-name="uniE007" unicode="&#xE007;" d="M1080-28Q808-28 602.50 100Q397 228 282.50 464Q168 700 168 1024Q168 1267 235 1461.50Q302 1656 423.50 1793Q545 1930 710.50 2003Q876 2076 1072 2076Q1234 2076 1376 2027.50Q1518 1979 1631.50 1890.50Q1745 1802 1820.50 1679.50Q1896 1557 1924 1408L1668 1408Q1637 1509 1582 1589.50Q1527 1670 1450 1727Q1373 1784 1278 1814Q1183 1844 1072 1844Q890 1844 739 1750Q588 1656 498 1473Q408 1290 408 1024Q408 758 497 575Q586 392 738 298Q890 204 1080 204Q1263 204 1401.50 284.50Q1540 365 1618 506.50Q1696 648 1696 830L1728 804L1136 804L1136 1024L1936 1024L1936 0L1728 0L1698 250L1688 250Q1571 116 1427 44Q1283-28 1080-28M1064 2304Q995 2304 945.50 2351Q896 2398 896 2464Q896 2530 945.50 2577Q995 2624 1064 2624Q1133 2624 1182.50 2577Q1232 2530 1232 2464Q1232 2398 1182.50 2351Q1133 2304 1064 2304Z"  horiz-adv-x="2112" vert-adv-y="2816"  />

      
      <glyph glyph-name="uniE008" unicode="&#xE008;" d="M1080-28Q808-28 602.50 100Q397 228 282.50 464Q168 700 168 1024Q168 1267 235 1461.50Q302 1656 423.50 1793Q545 1930 710.50 2003Q876 2076 1072 2076Q1234 2076 1376 2027.50Q1518 1979 1631.50 1890.50Q1745 1802 1820.50 1679.50Q1896 1557 1924 1408L1668 1408Q1637 1509 1582 1589.50Q1527 1670 1450 1727Q1373 1784 1278 1814Q1183 1844 1072 1844Q890 1844 739 1750Q588 1656 498 1473Q408 1290 408 1024Q408 758 497 575Q586 392 738 298Q890 204 1080 204Q1263 204 1401.50 284.50Q1540 365 1618 506.50Q1696 648 1696 830L1728 804L1136 804L1136 1024L1936 1024L1936 0L1728 0L1698 250L1688 250Q1571 116 1427 44Q1283-28 1080-28M826-680L938-162L1180-162L1010-680L826-680Z"  horiz-adv-x="2112" vert-adv-y="2816"  />

      
      <glyph glyph-name="uniE009" unicode="&#xE009;" d="M1080-28Q808-28 602.50 100Q397 228 282.50 464Q168 700 168 1024Q168 1267 235 1461.50Q302 1656 423.50 1793Q545 1930 710.50 2003Q876 2076 1072 2076Q1234 2076 1376 2027.50Q1518 1979 1631.50 1890.50Q1745 1802 1820.50 1679.50Q1896 1557 1924 1408L1668 1408Q1637 1509 1582 1589.50Q1527 1670 1450 1727Q1373 1784 1278 1814Q1183 1844 1072 1844Q890 1844 739 1750Q588 1656 498 1473Q408 1290 408 1024Q408 758 497 575Q586 392 738 298Q890 204 1080 204Q1263 204 1401.50 284.50Q1540 365 1618 506.50Q1696 648 1696 830L1728 804L1136 804L1136 1024L1936 1024L1936 0L1728 0L1698 250L1688 250Q1571 116 1427 44Q1283-28 1080-28M856 2664L1064 2384L1272 2664L1496 2664L1496 2648L1172 2232L956 2232L632 2648L632 2664L856 2664Z"  horiz-adv-x="2112" vert-adv-y="2816"  />

      
      <glyph glyph-name="uniE00A" unicode="&#xE00A;" d="M1080-28Q808-28 602.50 100Q397 228 282.50 464Q168 700 168 1024Q168 1267 235 1461.50Q302 1656 423.50 1793Q545 1930 710.50 2003Q876 2076 1072 2076Q1234 2076 1376 2027.50Q1518 1979 1631.50 1890.50Q1745 1802 1820.50 1679.50Q1896 1557 1924 1408L1668 1408Q1637 1509 1582 1589.50Q1527 1670 1450 1727Q1373 1784 1278 1814Q1183 1844 1072 1844Q890 1844 739 1750Q588 1656 498 1473Q408 1290 408 1024Q408 758 497 575Q586 392 738 298Q890 204 1080 204Q1263 204 1401.50 284.50Q1540 365 1618 506.50Q1696 648 1696 830L1728 804L1136 804L1136 1024L1936 1024L1936 0L1728 0L1698 250L1688 250Q1571 116 1427 44Q1283-28 1080-28M956 2256L1200 2720L1476 2720L1164 2256L956 2256Z"  horiz-adv-x="2112" vert-adv-y="2816"  />

      
      <glyph glyph-name="uniE00B" unicode="&#xE00B;" d="M1080-28Q808-28 602.50 100Q397 228 282.50 464Q168 700 168 1024Q168 1267 235 1461.50Q302 1656 423.50 1793Q545 1930 710.50 2003Q876 2076 1072 2076Q1234 2076 1376 2027.50Q1518 1979 1631.50 1890.50Q1745 1802 1820.50 1679.50Q1896 1557 1924 1408L1668 1408Q1637 1509 1582 1589.50Q1527 1670 1450 1727Q1373 1784 1278 1814Q1183 1844 1072 1844Q890 1844 739 1750Q588 1656 498 1473Q408 1290 408 1024Q408 758 497 575Q586 392 738 298Q890 204 1080 204Q1263 204 1401.50 284.50Q1540 365 1618 506.50Q1696 648 1696 830L1728 804L1136 804L1136 1024L1936 1024L1936 0L1728 0L1698 250L1688 250Q1571 116 1427 44Q1283-28 1080-28M1532 2560L1532 2360L596 2360L596 2560L1532 2560Z"  horiz-adv-x="2112" vert-adv-y="2816"  />

      
      <glyph glyph-name="uni48" unicode="&#x48;" d="M248 0L248 2048L496 2048L496 1136L1588 1136L1588 2048L1836 2048L1836 0L1588 0L1588 916L496 916L496 0L248 0Z"  horiz-adv-x="2084" vert-adv-y="2816"  />

      
      <glyph glyph-name="uni1E28" unicode="&#x1E28;" d="M248 0L248 2048L496 2048L496 1136L1588 1136L1588 2048L1836 2048L1836 0L1588 0L1588 916L496 916L496 0L248 0M300 4L496 4L480-76Q558-88 623-141.50Q688-195 688-312Q688-441 581.50-522.50Q475-604 268-604L260-448Q353-448 414.50-418.50Q476-389 476-320Q476-251 425-226Q374-201 260-192L300 4Z"  horiz-adv-x="2084" vert-adv-y="2816"  />

      
      <glyph glyph-name="uni0124" unicode="&#x0124;" d="M248 0L248 2048L496 2048L496 1136L1588 1136L1588 2048L1836 2048L1836 0L1588 0L1588 916L496 916L496 0L248 0M1260 2236L1052 2516L844 2236L620 2236L620 2252L944 2668L1160 2668L1484 2252L1484 2236L1260 2236Z"  horiz-adv-x="2084" vert-adv-y="2816"  />

      
      <glyph glyph-name="uni021E" unicode="&#x021E;" d="M248 0L248 2048L496 2048L496 1136L1588 1136L1588 2048L1836 2048L1836 0L1588 0L1588 916L496 916L496 0L248 0M844 2668L1052 2388L1260 2668L1484 2668L1484 2652L1160 2236L944 2236L620 2652L620 2668L844 2668Z"  horiz-adv-x="2084" vert-adv-y="2816"  />

      
      <glyph glyph-name="uni1E22" unicode="&#x1E22;" d="M248 0L248 2048L496 2048L496 1136L1588 1136L1588 2048L1836 2048L1836 0L1588 0L1588 916L496 916L496 0L248 0M1052 2308Q983 2308 933.50 2355Q884 2402 884 2468Q884 2534 933.50 2581Q983 2628 1052 2628Q1121 2628 1170.50 2581Q1220 2534 1220 2468Q1220 2402 1170.50 2355Q1121 2308 1052 2308Z"  horiz-adv-x="2084" vert-adv-y="2816"  />

      
      <glyph glyph-name="uni1E24" unicode="&#x1E24;" d="M248 0L248 2048L496 2048L496 1136L1588 1136L1588 2048L1836 2048L1836 0L1588 0L1588 916L496 916L496 0L248 0M1040-508Q971-508 921.50-461Q872-414 872-348Q872-282 921.50-235Q971-188 1040-188Q1109-188 1158.50-235Q1208-282 1208-348Q1208-414 1158.50-461Q1109-508 1040-508Z"  horiz-adv-x="2084" vert-adv-y="2816"  />

      
      <glyph glyph-name="uni1E26" unicode="&#x1E26;" d="M248 0L248 2048L496 2048L496 1136L1588 1136L1588 2048L1836 2048L1836 0L1588 0L1588 916L496 916L496 0L248 0M764 2308Q701 2308 652.50 2356.50Q604 2405 604 2468Q604 2537 652.50 2582.50Q701 2628 764 2628Q833 2628 878.50 2582.50Q924 2537 924 2468Q924 2405 878.50 2356.50Q833 2308 764 2308M1340 2308Q1277 2308 1228.50 2356.50Q1180 2405 1180 2468Q1180 2537 1228.50 2582.50Q1277 2628 1340 2628Q1409 2628 1454.50 2582.50Q1500 2537 1500 2468Q1500 2405 1454.50 2356.50Q1409 2308 1340 2308Z"  horiz-adv-x="2084" vert-adv-y="2816"  />

      
      <glyph glyph-name="uni1E2A" unicode="&#x1E2A;" d="M248 0L248 2048L496 2048L496 1136L1588 1136L1588 2048L1836 2048L1836 0L1588 0L1588 916L496 916L496 0L248 0M1232-132L1452-132Q1452-242 1401.50-326Q1351-410 1258.50-457Q1166-504 1040-504Q848-504 736-397.50Q624-291 624-132L844-132Q844-213 889-272.50Q934-332 1036-332Q1141-332 1186.50-271Q1232-210 1232-132Z"  horiz-adv-x="2084" vert-adv-y="2816"  />

      
      <glyph glyph-name="uni0126" unicode="&#x0126;" d="M2052 1616L2052 1408L136 1408L136 1616L2052 1616M300 0L300 2048L548 2048L548 1136L1640 1136L1640 2048L1888 2048L1888 0L1640 0L1640 916L548 916L548 0L300 0Z"  horiz-adv-x="2188" vert-adv-y="2816"  />

      
      <glyph glyph-name="uni04C7" unicode="&#x04C7;" d="M1588 0L1836 0L1836-164Q1836-243 1815.50-308Q1795-373 1757-423Q1719-473 1668-507Q1617-541 1556-558.50Q1495-576 1428-576Q1392-576 1355.50-574.50Q1319-573 1292-564L1292-360Q1307-363 1327-365.50Q1347-368 1368-368Q1432-368 1481.50-349.50Q1531-331 1559.50-285.50Q1588-240 1588-160L1588 0M248 0L248 2048L496 2048L496 1136L1588 1136L1588 2048L1836 2048L1836 0L1588 0L1588 916L496 916L496 0L248 0Z"  horiz-adv-x="2084" vert-adv-y="2816"  />

      
      <glyph glyph-name="uni04A2" unicode="&#x04A2;" d="M248 0L248 2048L496 2048L496 1136L1588 1136L1588 2048L1836 2048L1836 0L1588 0L1588 916L496 916L496 0L248 0M2048 220L2048-496L1812-496L1812 220L2048 220Z"  horiz-adv-x="2160" vert-adv-y="2816"  />

      
      <glyph glyph-name="uni04C9" unicode="&#x04C9;" d="M248 0L248 2048L496 2048L496 1136L1588 1136L1588 2048L1836 2048L1836 0L1588 0L1588 916L496 916L496 0L248 0M2072 156L2072-32Q2070-120 2053-204Q2036-288 2002-369Q1968-450 1916-528L1716-488Q1750-408 1777-333.50Q1804-259 1820-185.50Q1836-112 1836-36L1836 156L2072 156Z"  horiz-adv-x="2184" vert-adv-y="2816"  />

      
      <glyph glyph-name="uni04A4" unicode="&#x04A4;" d="M2640 2048L2640 1828L1836 1828L1836 0L1588 0L1588 916L496 916L496 0L248 0L248 2048L496 2048L496 1136L1588 1136L1588 2048L2640 2048Z"  horiz-adv-x="2776" vert-adv-y="2816"  />

      
      <glyph glyph-name="uni01F6" unicode="&#x01F6;" d="M2260-28Q2060-28 1908.50 48.50Q1757 125 1672.50 275.50Q1588 426 1588 648L1588 916L496 916L496 0L248 0L248 2048L496 2048L496 1136L1588 1136L1588 2048L1836 2048L1836 648Q1836 417 1947.50 308.50Q2059 200 2260 200Q2461 200 2566.50 308.50Q2672 417 2672 648L2672 1536L2920 1536L2920 648Q2920 422 2836 272Q2752 122 2603 47Q2454-28 2260-28Z"  horiz-adv-x="3136" vert-adv-y="2816"  />

      
      <glyph glyph-name="uni0397" unicode="&#x0397;" d="M248 0L248 2048L496 2048L496 1136L1588 1136L1588 2048L1836 2048L1836 0L1588 0L1588 916L496 916L496 0L248 0Z"  horiz-adv-x="2084" vert-adv-y="2816"  />

      
      <glyph glyph-name="uni0389" unicode="&#x0389;" d="M592 0L592 2048L840 2048L840 1136L1932 1136L1932 2048L2180 2048L2180 0L1932 0L1932 916L840 916L840 0L592 0M200 1708L268 2176L524 2176L364 1708L200 1708Z"  horiz-adv-x="2428" vert-adv-y="2816"  />

      
      <glyph glyph-name="uni1F28" unicode="&#x1F28;" d="M688 0L688 2048L936 2048L936 1136L2028 1136L2028 2048L2276 2048L2276 0L2028 0L2028 916L936 916L936 0L688 0M560 2048L560 1936Q560 1856 531 1785Q502 1714 446 1655Q390 1596 308 1552L200 1636Q238 1678 263 1724Q288 1770 300 1824Q312 1878 312 1944L312 2048L560 2048Z"  horiz-adv-x="2524" vert-adv-y="2816"  />

      
      <glyph glyph-name="uni1F29" unicode="&#x1F29;" d="M668 0L668 2048L916 2048L916 1136L2008 1136L2008 2048L2256 2048L2256 0L2008 0L2008 916L916 916L916 0L668 0M200 1936L200 2048L448 2048L448 1944Q448 1878 460 1824Q472 1770 497 1724Q522 1678 560 1636L452 1552Q332 1618 266 1717Q200 1816 200 1936Z"  horiz-adv-x="2504" vert-adv-y="2816"  />

      
      <glyph glyph-name="uni1F2A" unicode="&#x1F2A;" d="M1240 0L1240 2048L1488 2048L1488 1136L2580 1136L2580 2048L2828 2048L2828 0L2580 0L2580 916L1488 916L1488 0L1240 0M1068 1612L1068 1592L940 1592L624 2028L624 2056L912 2056L1068 1612M560 2056L560 1944Q560 1864 530.50 1793Q501 1722 444.50 1663Q388 1604 308 1560L200 1644Q254 1707 283 1780Q312 1853 312 1952L312 2056L560 2056Z"  horiz-adv-x="3076" vert-adv-y="2816"  />

      
      <glyph glyph-name="uni1F2B" unicode="&#x1F2B;" d="M1136 0L1136 2048L1384 2048L1384 1136L2476 1136L2476 2048L2724 2048L2724 0L2476 0L2476 916L1384 916L1384 0L1136 0M984 1604L984 1584L856 1584L540 2020L540 2048L832 2048L984 1604M200 1936L200 2048L448 2048L448 1944Q448 1845 475.50 1772Q503 1699 560 1636L452 1552Q332 1618 266 1717Q200 1816 200 1936Z"  horiz-adv-x="2972" vert-adv-y="2816"  />

      
      <glyph glyph-name="uni1F2C" unicode="&#x1F2C;" d="M1116 0L1116 2048L1364 2048L1364 1136L2456 1136L2456 2048L2704 2048L2704 0L2456 0L2456 916L1364 916L1364 0L1116 0M580 1584L580 1604L736 2048L1024 2048L1024 2020L708 1584L580 1584M560 2048L560 1936Q560 1856 530.50 1785Q501 1714 444.50 1655Q388 1596 308 1552L200 1636Q254 1699 283 1772Q312 1845 312 1944L312 2048L560 2048Z"  horiz-adv-x="2952" vert-adv-y="2816"  />

      
      <glyph glyph-name="uni1F2D" unicode="&#x1F2D;" d="M1164 0L1164 2048L1412 2048L1412 1136L2504 1136L2504 2048L2752 2048L2752 0L2504 0L2504 916L1412 916L1412 0L1164 0M612 1584L612 1604L764 2048L1056 2048L1056 2020L740 1584L612 1584M452 1552Q332 1618 266 1717Q200 1816 200 1936L200 2048L448 2048L448 1944Q448 1845 477 1772Q506 1699 560 1636L452 1552Z"  horiz-adv-x="3000" vert-adv-y="2816"  />

      
      <glyph glyph-name="uni1F2E" unicode="&#x1F2E;" d="M956 0L956 2048L1204 2048L1204 1136L2296 1136L2296 2048L2544 2048L2544 0L2296 0L2296 916L1204 916L1204 0L956 0M844 2372L964 2336Q964 2237 899 2162.50Q834 2088 732 2088Q677 2088 638.50 2103Q600 2118 569.50 2138Q539 2158 506 2173Q473 2188 428 2188Q383 2188 351.50 2153.50Q320 2119 320 2068L200 2100Q200 2199 263 2277.50Q326 2356 428 2356Q475 2356 512 2340.50Q549 2325 583 2304Q617 2283 653 2267.50Q689 2252 732 2252Q777 2252 810.50 2286.50Q844 2321 844 2372M712 2020L712 1924Q712 1846 670 1757Q628 1668 544 1608L424 1676Q466 1733 485 1792Q504 1851 504 1920L504 2020L712 2020Z"  horiz-adv-x="2792" vert-adv-y="2816"  />

      
      <glyph glyph-name="uni1F2F" unicode="&#x1F2F;" d="M968 0L968 2048L1216 2048L1216 1136L2308 1136L2308 2048L2556 2048L2556 0L2308 0L2308 916L1216 916L1216 0L968 0M492 1924L492 2020L700 2020L700 1920Q700 1851 719 1792Q738 1733 780 1676L656 1608Q572 1668 532 1757Q492 1846 492 1924M844 2372L964 2336Q964 2237 899 2162.50Q834 2088 732 2088Q677 2088 638.50 2103Q600 2118 569.50 2138Q539 2158 506 2173Q473 2188 428 2188Q383 2188 351.50 2153.50Q320 2119 320 2068L200 2100Q200 2199 263 2277.50Q326 2356 428 2356Q475 2356 512 2340.50Q549 2325 583 2304Q617 2283 653 2267.50Q689 2252 732 2252Q777 2252 810.50 2286.50Q844 2321 844 2372Z"  horiz-adv-x="2804" vert-adv-y="2816"  />

      
      <glyph glyph-name="uni1FCA" unicode="&#x1FCA;" d="M812 0L812 2048L1060 2048L1060 1136L2152 1136L2152 2048L2400 2048L2400 0L2152 0L2152 916L1060 916L1060 0L812 0M516 1580L200 2020L200 2048L488 2048L644 1604L644 1580L516 1580Z"  horiz-adv-x="2648" vert-adv-y="2816"  />

      
      <glyph glyph-name="uni1FCB" unicode="&#x1FCB;" d="M732 0L732 2048L980 2048L980 1136L2072 1136L2072 2048L2320 2048L2320 0L2072 0L2072 916L980 916L980 0L732 0M344 1728L344 1752L496 2196L788 2196L788 2168L472 1728L344 1728Z"  horiz-adv-x="2568" vert-adv-y="2816"  />

      
      <glyph glyph-name="uni041D" unicode="&#x041D;" d="M248 0L248 2048L496 2048L496 1136L1588 1136L1588 2048L1836 2048L1836 0L1588 0L1588 916L496 916L496 0L248 0Z"  horiz-adv-x="2084" vert-adv-y="2816"  />

      
      <glyph glyph-name="uni1F98" unicode="&#x1F98;" d="M588 0L588 2048L836 2048L836 1136L1928 1136L1928 2048L2176 2048L2176 0L1928 0L1928 916L836 916L836 0L588 0M1508-680Q1406-680 1341-619.50Q1276-559 1276-424L1276-120L1484-120L1484-420Q1484-480 1503-504Q1522-528 1552-528Q1567-528 1585-526Q1603-524 1612-524L1612-664Q1597-670 1572-675Q1547-680 1508-680M460 2048L460 1936Q460 1856 431 1785Q402 1714 346 1655Q290 1596 208 1552L100 1636Q138 1678 163 1724Q188 1770 200 1824Q212 1878 212 1944L212 2048L460 2048Z"  horiz-adv-x="2424" vert-adv-y="2816"  />

      
      <glyph glyph-name="uni1F99" unicode="&#x1F99;" d="M668 0L668 2048L916 2048L916 1136L2008 1136L2008 2048L2256 2048L2256 0L2008 0L2008 916L916 916L916 0L668 0M1588-680Q1486-680 1421-619.50Q1356-559 1356-424L1356-120L1564-120L1564-420Q1564-480 1583-504Q1602-528 1632-528Q1647-528 1665-526Q1683-524 1692-524L1692-664Q1677-670 1652-675Q1627-680 1588-680M200 1936L200 2048L448 2048L448 1944Q448 1878 460 1824Q472 1770 497 1724Q522 1678 560 1636L452 1552Q332 1618 266 1717Q200 1816 200 1936Z"  horiz-adv-x="2504" vert-adv-y="2816"  />

      
      <glyph glyph-name="uni1F9A" unicode="&#x1F9A;" d="M1240 0L1240 2048L1488 2048L1488 1136L2580 1136L2580 2048L2828 2048L2828 0L2580 0L2580 916L1488 916L1488 0L1240 0M2160-680Q2058-680 1993-619.50Q1928-559 1928-424L1928-120L2136-120L2136-420Q2136-480 2155-504Q2174-528 2204-528Q2219-528 2237-526Q2255-524 2264-524L2264-664Q2249-670 2224-675Q2199-680 2160-680M1068 1612L1068 1592L940 1592L624 2028L624 2056L912 2056L1068 1612M560 2056L560 1944Q560 1864 530.50 1793Q501 1722 444.50 1663Q388 1604 308 1560L200 1644Q254 1707 283 1780Q312 1853 312 1952L312 2056L560 2056Z"  horiz-adv-x="3076" vert-adv-y="2816"  />

      
      <glyph glyph-name="uni1F9B" unicode="&#x1F9B;" d="M1136 0L1136 2048L1384 2048L1384 1136L2476 1136L2476 2048L2724 2048L2724 0L2476 0L2476 916L1384 916L1384 0L1136 0M2056-680Q1954-680 1889-619.50Q1824-559 1824-424L1824-120L2032-120L2032-420Q2032-480 2051-504Q2070-528 2100-528Q2115-528 2133-526Q2151-524 2160-524L2160-664Q2145-670 2120-675Q2095-680 2056-680M984 1604L984 1584L856 1584L540 2020L540 2048L832 2048L984 1604M200 1936L200 2048L448 2048L448 1944Q448 1845 475.50 1772Q503 1699 560 1636L452 1552Q332 1618 266 1717Q200 1816 200 1936Z"  horiz-adv-x="2972" vert-adv-y="2816"  />

      
      <glyph glyph-name="uni1F9C" unicode="&#x1F9C;" d="M1116 0L1116 2048L1364 2048L1364 1136L2456 1136L2456 2048L2704 2048L2704 0L2456 0L2456 916L1364 916L1364 0L1116 0M2036-680Q1934-680 1869-619.50Q1804-559 1804-424L1804-120L2012-120L2012-420Q2012-480 2031-504Q2050-528 2080-528Q2095-528 2113-526Q2131-524 2140-524L2140-664Q2125-670 2100-675Q2075-680 2036-680M580 1584L580 1604L736 2048L1024 2048L1024 2020L708 1584L580 1584M560 2048L560 1936Q560 1856 530.50 1785Q501 1714 444.50 1655Q388 1596 308 1552L200 1636Q254 1699 283 1772Q312 1845 312 1944L312 2048L560 2048Z"  horiz-adv-x="2952" vert-adv-y="2816"  />

      
      <glyph glyph-name="uni1F9D" unicode="&#x1F9D;" d="M1164 0L1164 2048L1412 2048L1412 1136L2504 1136L2504 2048L2752 2048L2752 0L2504 0L2504 916L1412 916L1412 0L1164 0M2084-680Q1982-680 1917-619.50Q1852-559 1852-424L1852-120L2060-120L2060-420Q2060-480 2079-504Q2098-528 2128-528Q2143-528 2161-526Q2179-524 2188-524L2188-664Q2173-670 2148-675Q2123-680 2084-680M612 1584L612 1604L764 2048L1056 2048L1056 2020L740 1584L612 1584M452 1552Q332 1618 266 1717Q200 1816 200 1936L200 2048L448 2048L448 1944Q448 1845 477 1772Q506 1699 560 1636L452 1552Z"  horiz-adv-x="3000" vert-adv-y="2816"  />

      
      <glyph glyph-name="uni1F9E" unicode="&#x1F9E;" d="M956 0L956 2048L1204 2048L1204 1136L2296 1136L2296 2048L2544 2048L2544 0L2296 0L2296 916L1204 916L1204 0L956 0M1876-680Q1774-680 1709-619.50Q1644-559 1644-424L1644-120L1852-120L1852-420Q1852-480 1871-504Q1890-528 1920-528Q1935-528 1953-526Q1971-524 1980-524L1980-664Q1965-670 1940-675Q1915-680 1876-680M844 2372L964 2336Q964 2237 899 2162.50Q834 2088 732 2088Q677 2088 638.50 2103Q600 2118 569.50 2138Q539 2158 506 2173Q473 2188 428 2188Q383 2188 351.50 2153.50Q320 2119 320 2068L200 2100Q200 2199 263 2277.50Q326 2356 428 2356Q475 2356 512 2340.50Q549 2325 583 2304Q617 2283 653 2267.50Q689 2252 732 2252Q777 2252 810.50 2286.50Q844 2321 844 2372M712 2020L712 1924Q712 1846 670 1757Q628 1668 544 1608L424 1676Q466 1733 485 1792Q504 1851 504 1920L504 2020L712 2020Z"  horiz-adv-x="2792" vert-adv-y="2816"  />

      
      <glyph glyph-name="uni1F9F" unicode="&#x1F9F;" d="M968 0L968 2048L1216 2048L1216 1136L2308 1136L2308 2048L2556 2048L2556 0L2308 0L2308 916L1216 916L1216 0L968 0M1888-680Q1786-680 1721-619.50Q1656-559 1656-424L1656-120L1864-120L1864-420Q1864-480 1883-504Q1902-528 1932-528Q1947-528 1965-526Q1983-524 1992-524L1992-664Q1977-670 1952-675Q1927-680 1888-680M492 1924L492 2020L700 2020L700 1920Q700 1851 719 1792Q738 1733 780 1676L656 1608Q572 1668 532 1757Q492 1846 492 1924M844 2372L964 2336Q964 2237 899 2162.50Q834 2088 732 2088Q677 2088 638.50 2103Q600 2118 569.50 2138Q539 2158 506 2173Q473 2188 428 2188Q383 2188 351.50 2153.50Q320 2119 320 2068L200 2100Q200 2199 263 2277.50Q326 2356 428 2356Q475 2356 512 2340.50Q549 2325 583 2304Q617 2283 653 2267.50Q689 2252 732 2252Q777 2252 810.50 2286.50Q844 2321 844 2372Z"  horiz-adv-x="2804" vert-adv-y="2816"  />

      
      <glyph glyph-name="uni1FCC" unicode="&#x1FCC;" d="M248 0L248 2048L496 2048L496 1136L1588 1136L1588 2048L1836 2048L1836 0L1588 0L1588 916L496 916L496 0L248 0M1168-680Q1066-680 1001-619.50Q936-559 936-424L936-120L1144-120L1144-420Q1144-480 1163-504Q1182-528 1212-528Q1227-528 1245-526Q1263-524 1272-524L1272-664Q1257-670 1232-675Q1207-680 1168-680Z"  horiz-adv-x="2084" vert-adv-y="2816"  />

      
      <glyph glyph-name="uni49" unicode="&#x49;" d="M496 2048L496 0L248 0L248 2048L496 2048Z"  horiz-adv-x="744" vert-adv-y="2816"  />

      
      <glyph glyph-name="unicf" unicode="&#xcf;" d="M496 2048L496 0L248 0L248 2048L496 2048M84 2304Q21 2304-27.50 2352.50Q-76 2401-76 2464Q-76 2533-27.50 2578.50Q21 2624 84 2624Q153 2624 198.50 2578.50Q244 2533 244 2464Q244 2401 198.50 2352.50Q153 2304 84 2304M660 2304Q597 2304 548.50 2352.50Q500 2401 500 2464Q500 2533 548.50 2578.50Q597 2624 660 2624Q729 2624 774.50 2578.50Q820 2533 820 2464Q820 2401 774.50 2352.50Q729 2304 660 2304Z"  horiz-adv-x="744" vert-adv-y="2816"  />

      
      <glyph glyph-name="uni1E2E" unicode="&#x1E2E;" d="M496 2048L496 0L248 0L248 2048L496 2048M268 2672L560 2976L836 2976L476 2672L268 2672M84 2208Q21 2208-27.50 2256.50Q-76 2305-76 2368Q-76 2437-27.50 2482.50Q21 2528 84 2528Q153 2528 198.50 2482.50Q244 2437 244 2368Q244 2305 198.50 2256.50Q153 2208 84 2208M660 2208Q597 2208 548.50 2256.50Q500 2305 500 2368Q500 2437 548.50 2482.50Q597 2528 660 2528Q729 2528 774.50 2482.50Q820 2437 820 2368Q820 2305 774.50 2256.50Q729 2208 660 2208Z"  horiz-adv-x="744" vert-adv-y="2816"  />

      
      <glyph glyph-name="uni0197" unicode="&#x0197;" d="M496 2048L496 0L248 0L248 2048L496 2048M-68 964L-68 1148L812 1148L812 964L-68 964Z"  horiz-adv-x="744" vert-adv-y="2816"  />

      
      </font>
</defs>
</svg>
